<?xml version="1.0" standalone="no"?>
<!DOCTYPE svg PUBLIC "-//W3C//DTD SVG 1.1//EN" "http://www.w3.org/Graphics/SVG/1.1/DTD/svg11.dtd">
<svg xmlns="http://www.w3.org/2000/svg">
<metadata>Copyright (C) 2021 by original authors @ fontello.com</metadata>
<defs>
<font id="myclimate-icons" horiz-adv-x="1000" >
<font-face font-family="myclimate-icons" font-weight="400" font-stretch="normal" units-per-em="1000" ascent="850" descent="-150" />
<missing-glyph horiz-adv-x="1000" />
<glyph glyph-name="abfallmanagement" unicode="&#xe800;" d="M344 306c7 0 14 6 14 14 0 72 56 131 126 136l-25-26c-6-5-6-14 0-19 3-3 6-5 10-5s7 2 9 5l48 47c4 3 6 7 6 12 0 0 0 0 0 0 0 4-1 7-4 10l-50 50c-5 6-14 6-20 0-5-6-5-14 0-20l27-27c-86-4-156-75-156-163 1-8 7-14 15-14z m218 132c62-36 85-114 54-178l-10 36c-2 7-10 11-17 9-7-2-11-9-10-17l19-67c0-4 3-8 6-10 2-1 5-2 7-2 3 0 5 1 7 2l65 18c8 2 12 9 10 17s-10 11-17 9l-36-9c39 77 11 172-64 215-7 4-15 2-19-5-4-6-2-14 5-18z m-233-253c1-1 3-1 4-1 6 0 11 4 13 10l10 37c22-35 55-59 95-70 14-3 28-5 43-5 28 0 56 7 82 22 6 4 8 12 5 19-4 6-13 9-19 5-32-18-68-23-104-14-32 9-59 28-78 56l36-10c7-1 15 3 17 10 2 8-3 15-10 17l-68 18c0 0 0 0 0 0-1 1-2 1-3 1 0 0 0 0 0 0-1 0-2 0-3 0 0 0 0 0 0 0-1 0-1-1-2-1-1 0-2 0-3-1-1 0-1-1-2-2-1 0-1 0-1-1 0 0-1-1-1-1 0 0 0-1-1-1 0-1 0-1 0-1-1-1-1-2-1-3 0 0 0 0 0 0l-19-68c-1-7 3-14 10-16z m272 548h-200c-8 0-14-6-14-14v-51h-162c-8 0-14-6-14-14v-50c0-8 6-14 14-14h12l49-585c1-8 7-13 14-13h400c7 0 13 5 14 13l49 585h12c8 0 14 6 14 14v50c0 8-6 14-14 14h-160v51c0 8-6 14-14 14z m-186-27h172v-38h-172v38z m272-686h-374l-48 570h470l-48-570z m74 598h-11-500-11v22h522v-22z" horiz-adv-x="1000" />

<glyph glyph-name="abmelden" unicode="&#xe801;" d="M283 6h415c8 0 14 6 14 14v660c0 8-6 14-14 14h-415c-8 0-14-6-14-14v-151c0-8 6-14 14-14s14 6 14 14v137h387v-632h-387v137c0 7-6 13-14 13s-14-6-14-13v-151c0-8 6-14 14-14z m-84 344c0-8 6-14 14-14h360l-120-120c-6-5-6-14 0-20 3-2 6-4 10-4s7 2 9 4l144 144c0 1 1 1 2 2 0 1 0 1 0 1 0 1 1 1 1 2 0 0 0 1 0 1 0 0 1 1 1 1 0 2 0 4 0 6 0 0-1 1-1 1 0 0 0 1 0 1 0 1-1 1-1 2 0 0 0 0 0 1-1 1-2 1-2 2l-144 144c-5 5-14 5-19 0-6-6-6-15 0-20l120-120h-360c-8 0-14-6-14-14z" horiz-adv-x="1000" />

<glyph glyph-name="auszaehlung" unicode="&#xe802;" d="M186 332h632c8 0 14 6 14 14s-6 14-14 14h-632c-8 0-14-6-14-14s6-14 14-14z" horiz-adv-x="1000" />

<glyph glyph-name="anmelden" unicode="&#xe803;" d="M771 24a14 14 0 0 0-14 14c0 120-77 226-187 258a14 14 0 0 0-2 26 170 170 0 1 1-136 0 14 14 0 0 0-2-26c-110-32-187-138-187-258a14 14 0 0 0-28 0c0 121 72 229 177 274a198 198 0 1 0 216 0c105-45 177-153 177-274a14 14 0 0 0-14-14z" horiz-adv-x="1000" />

<glyph glyph-name="auto" unicode="&#xe804;" d="M872 422c-2 3-6 4-9 4h-118l-121 121c-3 3-6 4-10 4h-300c-72 0-131-55-138-125h-38-50c-8 0-14-6-14-13v-75-75c0-4 1-8 4-10l25-25c2-3 6-4 10-4h37c6-43 43-75 88-75s81 32 87 75h339c6-43 43-75 87-75s82 32 88 75h74c7 0 13 6 13 14v125c0 3-1 7-4 9l-50 50z m27-65v-6h-48v48h6l42-42z m-193 69h-230v98h132l98-98z m-392 98h135v-98h-245c7 55 54 98 110 98z m-213-125h23v-47h-23v47z m137-223c-34 0-62 28-62 62s28 61 62 61 61-28 61-61-28-62-61-62z m513 0c-33 0-61 28-61 62s28 61 61 61 62-28 62-61-28-62-62-62z m88 75c-6 43-43 75-88 75s-81-32-87-75h-188v87c0 7-6 13-13 13s-14-6-14-13v-87h-124c-6 43-43 75-87 75s-82-32-88-75h-32l-17 17v56h37c8 0 14 7 14 14v61h671v-61c0-8 6-14 14-14h62v-73h-60z m-276 125h-50c-8 0-14-6-14-13s6-14 14-14h50c7 0 13 6 13 14s-6 13-13 13z m-325-98c-23 0-40-19-40-40s18-40 40-40 40 18 40 40-19 40-40 40z m0-53c-7 0-13 6-13 13s6 12 13 12 12-6 12-12-6-13-12-13z m513 53c-22 0-40-19-40-40s18-40 40-40 40 18 40 40-18 40-40 40z m0-53c-6 0-12 6-12 13s6 12 12 12 13-6 13-12-6-13-13-13z" horiz-adv-x="1000" />

<glyph glyph-name="bildungsprojekte" unicode="&#xe805;" d="M250 536h175c8 0 14 6 14 14s-6 14-14 14h-175c-8 0-14-6-14-14s6-14 14-14z m0-75h175c8 0 14 6 14 14s-6 14-14 14h-175c-8 0-14-6-14-14s6-14 14-14z m0-75h175c8 0 14 6 14 14s-6 14-14 14h-175c-8 0-14-6-14-14s6-14 14-14z m0-75h175c8 0 14 6 14 14s-6 14-14 14h-175c-8 0-14-6-14-14s6-14 14-14z m325 225h175c8 0 14 6 14 14s-6 14-14 14h-175c-8 0-14-6-14-14s6-14 14-14z m0-75h175c8 0 14 6 14 14s-6 14-14 14h-175c-8 0-14-6-14-14s6-14 14-14z m0-75h175c8 0 14 6 14 14s-6 14-14 14h-175c-8 0-14-6-14-14s6-14 14-14z m175-75c8 0 14 6 14 14s-6 14-14 14h-175c-8 0-14-6-14-14s6-14 14-14h175z m125 303h-36v35c0 8-6 14-14 14h-255c-29 0-55-15-70-38-15 23-41 38-70 38h-255c-8 0-14-6-14-14v-35h-36c-8 0-14-6-14-14v-525c0-8 6-14 14-14l323-2 19-19c3-2 6-4 10-4h46c4 0 7 2 10 4l19 19 323 2c8 0 14 6 14 14v525c0 8-6 14-14 14z m-361-34c0 31 25 56 56 56h241v-480h-241c-21 0-41-8-56-21v445z m-325 56h241c31 0 56-25 56-56v-445c-15 13-35 21-56 21h-241v480z m275-553c-3 2-6 4-10 4l-315 2v497h22v-444c0-8 6-14 14-14h255c31 0 56-24 56-55 0-1 0-2 0-4v-5h-3l-19 19z m397 6l-315-2c-3 0-7-1-10-4l-18-19h-4v5c0 2 0 3 0 4 0 31 25 55 56 55h255c8 0 14 6 14 14v444h22v-497z" horiz-adv-x="1000" />

<glyph glyph-name="biogas" unicode="&#xe806;" d="M599 479h-58c-39 0-71-31-72-70 0 0 0 0 0 0v-50c-13 10-28 15-45 15h-58c-8 0-14-6-14-13v-59c0-39 32-72 72-72h45v-121c0-8 6-14 14-14s13 6 13 14v226h45c40 0 72 32 72 72v58c0 8-6 14-14 14z m-131-201l-15 15c-5 5-14 5-20 0-5-6-5-14 0-20l16-15h-25c-25 0-45 20-45 44v45h45c24 0 44-20 44-45v-24z m117 129c0-24-20-44-44-44h-25l15 15c6 6 6 14 0 20-5 5-14 5-19 0l-16-15v24c0 25 20 45 45 45h44v-45z m153-287v390c0 57-44 103-100 106v23h11c8 0 14 6 14 14s-6 13-14 13h-25-275-24c-8 0-14-6-14-13s6-14 14-14h10v-23c-55-3-100-49-100-106v-390c0-49 33-90 78-102-2-5-3-10-3-15 0-22 18-39 39-39h275c22 0 39 17 39 39 0 5-1 10-3 15 45 12 78 53 78 102z m-128 519v-23h-247v23h247z m14-648h-275c-6 0-11 5-11 12s5 11 11 11h275c6 0 11-5 11-11s-5-12-11-12z m8 50h-8-275-8c-43 0-78 35-78 79v390c0 43 35 79 78 79h8 275 8c43 0 78-35 78-79v-390c0-43-35-79-78-79z" horiz-adv-x="1000" />

<glyph glyph-name="biomasse" unicode="&#xe807;" d="M519 439h108c75 0 136 61 136 136v122c0 8-6 14-14 14h-122c-73 0-133-59-135-132 0 0 0 0 0-1v-115c-25 33-64 54-108 54h-123c-7 0-13-6-13-14v-122c0-75 60-136 135-136h108v-242c0-8 7-14 14-14s14 6 14 14v111h74c56 0 101 46 101 102v87c0 8-6 14-14 14h-87c-29 0-55-12-74-32v154z m108 244h108v-108c0-59-48-108-108-108h-88l57 57c6 6 6 15 0 20-5 6-14 6-19 0l-58-57v88c0 59 49 108 108 108z m-34-394h73v-73c0-41-33-74-73-74h-54l35 35c5 5 5 14 0 19-6 6-15 6-20 0l-35-34v54c0 40 33 73 74 73z m-102 4l-57 57c-6 6-14 6-20 0-5-5-5-14 0-19l58-58h-89c-59 0-108 48-108 108v108h108c60 0 108-48 108-108v-88z" horiz-adv-x="1000" />

<glyph glyph-name="breadcrumbs" unicode="&#xe808;" d="M371 663c-10 11-28 11-39 0-11-11-11-29 0-39l274-274-274-274c-11-10-11-28 0-39 6-5 13-8 20-8 7 0 14 3 20 8l293 293c11 11 11 29 0 39l-294 294z" horiz-adv-x="1000" />

<glyph glyph-name="download" unicode="&#xe809;" d="M692 42c0 8-6 14-14 14h-352c-8 0-14-6-14-14s6-14 14-14h352c8 0 14 6 14 14z m-200 42c1 0 1-1 2-1 0-1 1-1 1-1 1 0 1-1 2-1 0 0 1 0 1 0 0 0 1-1 1-1 1 0 2 0 3 0s2 0 3 0c0 0 1 1 1 1 0 0 1 0 1 0 1 0 1 1 2 1 0 0 0 0 1 1 1 0 1 1 2 1l223 223c6 6 6 14 0 20-6 6-14 6-20 0l-199-199v576c0 8-6 14-14 14s-14-6-14-14v-576l-199 199c-5 5-14 5-20 0-5-6-5-14 0-20l223-223z" horiz-adv-x="1000" />

<glyph glyph-name="druckerei" unicode="&#xe80a;" d="M263 547c-34 0-60-27-60-60s26-59 60-59 59 26 59 59-26 60-59 60z m0-92c-18 0-32 15-32 32s14 32 32 32 31-14 31-32-14-32-31-32z m59-243c0 33-26 60-59 60s-60-27-60-60 26-59 60-59 59 26 59 59z m-91 0c0 18 14 32 32 32s31-14 31-32-14-32-31-32-32 14-32 32z m538 147c42 27 70 75 70 128 0 84-68 152-151 152h-425c-84 0-152-68-152-152 0-61 36-113 88-137-52-24-88-77-88-138 0-83 68-151 152-151h425c43 0 83 18 112 50h150c8 0 14 6 14 14 0 116-84 214-195 234z m-81 252c68 0 123-56 123-124s-55-123-123-123h-338c39 27 64 72 64 123s-25 96-64 124h338z m-549-124c0 68 55 124 124 124s123-56 123-124-55-123-123-123-124 55-124 123z m0-275c0 68 55 124 124 124s123-56 123-124-55-123-123-123-124 55-124 123z m549-123h-338c39 27 64 72 64 123 0 37-13 70-34 96 63-36 106-105 106-183 0-8 6-14 14-14h258c-20-15-45-22-70-22z m-174 50c-5 85-55 159-127 197h301 37c112 0 204-87 211-197h-422z" horiz-adv-x="1000" />

<glyph glyph-name="drucksachen" unicode="&#xe80b;" d="M442 414h-58c-8 0-14-6-14-14v-59c0-39 32-72 72-72h44v-125c0-8 7-14 14-14s14 6 14 14v139c0 2 0 4 0 6v80h45c39 0 72 33 72 72v59c0 8-6 14-14 14h-58c-40 0-71-32-73-71 0 0 0 0 0 0v-45c-12 10-27 16-44 16z m44-94l-15 15c-5 6-14 6-19 0-6-6-6-14 0-20l18-18h-28c-25 0-45 20-45 44v45h45c24 0 44-20 44-45v-21z m73 166h44v-45c0-24-20-44-44-44h-17l15 15c6 6 6 14 0 20-5 6-14 6-19 0l-24-23v33c0 24 20 44 45 44z m-161 227c-1 0-2 0-2 0 0 0-1 0-1 0-1-1-1-1-2-1 0 0 0-1 0-1-1 0-2-1-2-1l-150-150c-1-1-2-2-2-2 0-1 0-1 0-1-1-1-1-1-1-2 0 0 0 0 0-1-1 0-1-1-1-1 0-1 0-2 0-3v-550c0-8 6-14 14-14h500c7 0 13 6 13 14v700c0 8-6 14-13 14h-350c-2 0-3 0-3-1z m-12-47v-102h-102l102 102z m350-652h-472v522h136c8 0 14 6 14 14v136h322v-672z" horiz-adv-x="1000" />

<glyph glyph-name="effizienter-kocher" unicode="&#xe80c;" d="M186 38c0-8 6-14 14-14h600c8 0 14 6 14 14v286h86c8 0 14 6 14 14v75c0 7-6 13-14 13h-67c4 3 6 7 6 12v50c0 7-6 13-14 13h-44c-35 35-85 71-167 89v73c0 7-6 13-14 13h-200c-8 0-14-6-14-13v-73c-83-18-132-55-167-89h-44c-8 0-14-6-14-13v-50c0-5 2-9 6-12h-67c-8 0-14-6-14-13v-75c0-8 6-14 14-14h86v-286z m600 13h-572v287 75 11h572v-11-75-287z m100 300h-72v48h72v-48z m-472 298h172v-54c-25 4-54 6-86 6s-61-2-86-6v54z m86-75c124 0 193-35 239-73h-478c46 38 115 73 239 73z m-311-100h622v-23h-11-600-11v23z m-75-123v48h72v-48h-72z m593 5c0 0-1 0-1 1 0 1 0 1-1 1 0 1 0 1 0 1-1 2-2 3-4 4 0 1-1 1-1 1-1 0-1 0-2 1 0 0 0 0-1 0 0 0-1 1-1 1-1 0-2 0-3 0h-100c-8 0-14-6-14-14s6-14 14-14h66l-153-154-53 53c-6 6-14 6-20 0l-28-28-52 53c-6 6-15 6-20 0-6-6-6-14 0-20l62-62c6-6 14-6 20 0l28 28 53-53c2-3 6-4 9-4s8 1 10 4l164 164v-67c0-8 6-14 14-14s14 6 14 14v100c0 1 0 2-1 3 1 0 1 0 1 1z" horiz-adv-x="1000" />

<glyph glyph-name="energie" unicode="&#xe80d;" d="M413 339h-88c-8 0-14-6-14-14v-88c0-56 46-101 102-101h73v-136c0-8 6-14 14-14s14 6 14 14v136h74c55 0 101 45 101 101v88c0 8-6 14-14 14h-87c-29 0-55-13-74-32v130c56 7 100 55 100 113v50c0 8-6 14-14 14h-36v61c0 8-6 14-14 14s-14-6-14-14v-61h-72v61c0 8-6 14-14 14s-14-6-14-14v-61h-36c-8 0-14-6-14-14v-50c0-58 44-106 100-113v-130c-18 19-45 32-73 32z m-74-102v74h74c40 0 73-33 73-74v-54l-35 35c-5 6-14 6-19 0-6-5-6-14 0-20l34-34h-53c-41 0-74 33-74 73z m249 74h73v-74c0-40-33-73-73-73h-54l34 34c6 6 6 15 0 20-5 6-14 6-19 0l-35-35v54c0 41 33 74 74 74z m-174 239v36h172v-36c0-48-38-86-86-86s-86 38-86 86z" horiz-adv-x="1000" />

<glyph glyph-name="energieeffizienz" unicode="&#xe80e;" d="M265 215c6-5 14-5 20 0l65 66 115-116c3-2 7-4 10-4s7 2 10 4l351 352v-167c0-7 6-14 14-14s14 7 14 14v200c0 1 0 2 0 3 0 1-1 1-1 1 0 1 0 1 0 2 0 0-1 0-1 1 0 0 0 1-1 1-1 1-2 3-3 4-1 0-1 0-2 1 0 0 0 0-1 0-1 1-1 1-1 1-1 0-1 0-1 0-1 0-2 0-3 0h-200c-8 0-14-6-14-13s6-14 14-14h166l-341-342-115 115c-6 6-14 6-20 0l-65-65-115 115c-6 6-14 6-20 0-6-6-6-14 0-20l125-125z" horiz-adv-x="1000" />

<glyph glyph-name="events" unicode="&#xe80f;" d="M299 689c-7 0-13-6-13-14v-36h-112c-7 0-13-6-13-14v-550c0-8 6-14 13-14h650c8 0 14 6 14 14v550c0 8-6 14-14 14h-111v36c0 8-6 14-14 14s-13-6-13-14v-36h-373v36c0 8-6 14-14 14z m-111-600v422h623v-422h-623z m498 522v-36c0-8 6-14 13-14s14 6 14 14v36h98v-72h-623v72h98v-36c0-8 6-14 13-14s14 6 14 14v36h373z m-48-259h-96l-29 91c-2 6-8 10-14 10s-11-4-13-10l-30-91h-96c-6 0-11-4-13-10-2-6 0-12 5-15l77-57-29-91c-2-6 0-12 5-15 2-2 5-3 8-3s6 1 8 3l77 56 78-56c5-4 11-4 16 0 5 3 7 9 5 15l-29 91 77 57c5 3 7 9 5 15-1 6-6 10-12 10z m-94-65c-5-4-7-10-5-16l20-60-51 38c-5 3-12 3-17 0l-51-38 19 60c2 6 0 12-5 16l-51 37h64c6 0 11 4 13 10l19 60 20-60c2-6 7-10 13-10h63l-51-37z" horiz-adv-x="1000" />

<glyph glyph-name="externer-link" unicode="&#xe810;" d="M793 569c0 0 0 0 0 1-1 1-1 1-1 1-1 1-1 1-1 2-1 1-2 2-4 3 0 1 0 1-1 1 0 0-1 1-1 1-1 0-1 0-2 0 0 0 0 1-1 1-1 0-2 0-3 0h-203c-8 0-14-6-14-14s6-14 14-14h170l-255-254c-5-6-5-14 0-20 3-3 7-4 10-4s7 1 10 4l254 254v-169c0-8 6-14 14-14s14 6 14 14v203c0 1 0 2 0 3 0 0 0 0 0 1z m-55-325c-8 0-14-6-14-13v-167h-444v444h163c8 0 14 6 14 14s-6 14-14 14h-177c-8 0-14-6-14-14v-471c0-8 6-14 14-14h472c7 0 13 6 13 14v180c1 7-6 13-13 13z" horiz-adv-x="1000" />

<glyph glyph-name="facebook-ekw" unicode="&#xe811;" d="M94-56h812v812h-812v-812z m288 393v76l76 0v72c0 49 40 89 89 89h72v-72h-56c-16 0-29-13-29-29v-60l84 0-25-76-59 0v-211h-76v211l-76 0z" horiz-adv-x="1000" />

<glyph glyph-name="stern-1" unicode="&#xe812;" d="M874 460l-250 37-111 226c-3 5-8 8-13 8s-10-3-12-8l-112-226-250-37c-5-1-10-4-11-9-2-5-1-11 3-14l181-177-43-249c-1-5 1-10 6-14 4-3 10-3 14-1l224 118 224-118c2-1 4-1 6-1 3 0 6 1 8 2 4 4 6 9 6 14l-43 249 181 176c4 4 5 10 3 15-1 5-6 8-11 9z m-198-185c-3-3-4-8-3-12l39-229-206 108c-2 1-4 2-6 2s-4-1-6-2l-206-108 40 229c0 4-1 9-4 12l-166 162 229 33c4 1 8 4 11 8l102 208 103-208c1-4 5-7 10-8l230-33-167-162z m-117-17h-45v177c0 4-3 4-5 4l-62-15c-3-1-5-2-5-5v-10c0-3 2-4 5-4l46 12v-159h-47c-2 0-4-1-4-4v-10c0-3 1-4 4-4h113c3 0 5 1 5 4v10c0 3-1 4-5 4z" horiz-adv-x="1000" />

<glyph glyph-name="facebook" unicode="&#xe813;" d="M669 716h-113c-85 0-154-70-154-155v-95l-104 0c0 0 0 0 0 0-4 0-7-1-10-4s-4-6-4-10v-122c0-4 2-7 4-10s6-4 10-4c0 0 0 0 0 0l104 0v-313c0-8 6-14 14-14h122c8 0 14 6 14 14v313l77 0c6 0 11 4 13 9l41 123c1 4 0 8-2 12s-7 6-12 6l-117 0v76c0 16 13 29 29 29h88c8 0 14 6 14 13v118c0 7-6 14-14 14z m-13-117h-75c-31 0-57-26-57-57v-90c0-8 7-14 14-14l112 0-31-94-81 0c-7 0-14-6-14-14v-313h-94v313c0 3-2 7-4 9s-7 5-10 5c0 0 0 0 0 0l-104 0v94l104 0c0 0 0 0 0 0 3 0 7 2 10 5s4 6 4 9v109c0 70 57 127 126 127h100v-89z" horiz-adv-x="1000" />

<glyph glyph-name="flug" unicode="&#xe814;" d="M179 515l297-99-85-84c1 4 0 8-3 12-6 5-15 5-20 0l-35-36c-6-5-6-14 0-19 2-3 6-5 9-5 1 0 2 0 2 1l-47-47c-3-3-4-7-4-10v-37l-29 29c-6 6-14 6-20 0-5-6-5-14 0-20l106-106c3-3 7-4 10-4s7 1 10 4c5 6 5 14 0 20l-30 29h38c3 0 7 2 10 5l44 44c0-2 1-4 3-5 3-3 6-4 9-4s8 1 10 4l35 35c6 6 6 14 0 20-1 1-3 2-4 3l81 81 99-297c1-4 5-8 10-9 1 0 2 0 3 0 3 0 7 1 10 4l33 33c2 3 4 6 4 10v171l33 33c6 6 6 15 0 20-5 6-14 6-19 0l-14-13v66l31 32c6 5 6 14 0 19-5 6-14 6-19 0l-12-11v102l86 86c25 25 25 66 0 91-25 25-65 25-90 0l-86-87h-102l11 12c6 5 6 14 0 20-5 5-14 5-20 0l-31-32h-67l14 14c6 5 6 14 0 19-6 6-14 6-20 0l-33-33h-170c-4 0-8-1-10-4l-33-33c-4-4-5-9-4-13s4-9 9-11z m519-166c0 0 0 0 0 0v-277l-14-13-96 289 110 109v-108z m43 293c14 14 37 14 51 0 14-14 14-37 0-51l-420-420h-51v51l420 420z m-518-94h385l-110-110-289 96 14 14z" horiz-adv-x="1000" />

<glyph glyph-name="hamburger-navi" unicode="&#xe815;" d="M250 583h500c8 0 14 6 14 14s-6 14-14 14h-500c-8 0-14-6-14-14s6-14 14-14z m0-250h500c8 0 14 6 14 14s-6 14-14 14h-500c-8 0-14-6-14-14s6-14 14-14z m0-250h500c8 0 14 6 14 14s-6 14-14 14h-500c-8 0-14-6-14-14s6-14 14-14z" horiz-adv-x="1000" />

<glyph glyph-name="haushalt" unicode="&#xe816;" d="M550 194h50 125 50c8 0 14 7 14 14v120c0 8-6 14-14 14h-50-125-50c-8 0-14-6-14-14v-120c0-7 6-14 14-14z m211 28h-22v92h22v-92z m-50 0h-97v92h97v-92z m-147 92h22v-92h-22v92z m-463-200h97 113 94 494c8 0 14 6 14 14v250c0 3-1 7-4 10l-93 92v148c0 8-6 14-13 14h-75c-8 0-14-6-14-14v-45l-52 51c-6 6-14 6-20 0l-93-92h-299c-4 0-7-2-10-4l-149-152c-2-2-4-6-4-10v-248c0-8 6-14 14-14z m14 247h276v-219h-66v155c0 7-6 14-14 14h-113c-7 0-14-7-14-14v-155h-69v219z m97-219v141h85v-141h-85z m529 472h48v-106l-48 47v59z m-89-9l233-233v-230h-466v230l233 233z m-396-91h266l-125-125h-264l123 125z" horiz-adv-x="1000" />

<glyph glyph-name="innovation" unicode="&#xe817;" d="M429 42c0-49 40-89 89-89s88 40 88 89v58 26c0 11 5 22 14 28 2 1 3 1 4 2 2 1 6 2 17 7 0 0 1 0 1 0s0 0 0 0c115 50 189 163 189 288 0 173-141 314-314 314s-314-141-314-314c0-125 75-238 190-288 0 0 0 0 0 0s0 0 0 0c11-5 15-6 17-7 2-1 3-1 4-2 9-6 14-17 14-28v-26-58z m25 325h-49c-26 0-48 22-48 49s22 48 48 48 49-22 49-48v-49z m99-255h-72c0 1 0 1 0 1v226h72v-226c0 0 0 0 0-1z m-35-131c-34 0-62 27-62 61v42h123v-42c0-34-28-61-61-61z m-92 199c-4 1-4 1-5 2-2 1-6 2-17 6-105 46-173 149-173 263 0 158 129 286 287 286s286-128 286-286c0-114-68-217-173-263-11-4-15-6-17-6-1-1-1-1-5-2-1-1-2-1-3-2-13-9-22-22-25-36v197h48c42 0 76 34 76 76s-34 76-76 76-76-33-76-75v-49h-72v49c0 42-34 76-76 76s-76-34-76-76 34-77 76-77h48v-194c-4 13-12 25-24 33-1 1-2 2-3 2z m155 187v49c0 26 21 48 48 48s48-22 48-48-21-49-48-49h-48z" horiz-adv-x="1000" />

<glyph glyph-name="instagram-ekw" unicode="&#xe818;" d="M646 521c-14 0-26-12-26-26 0-14 12-26 26-26s25 12 25 26c0 14-11 26-25 26z m-552-577h812v812h-812v-812z m634 534v-259c0-54-44-98-99-98h-258c-55 0-99 44-99 98v259c0 55 45 99 99 99h258c55 0 99-45 99-99z m-228 4c-73 0-133-60-133-133s60-133 133-133c73 0 133 59 133 133s-60 133-133 133z m88-133c0-49-40-88-88-88-48 0-87 39-87 88 0 48 39 87 87 87 48 0 88-39 88-87z" horiz-adv-x="1000" />

<glyph glyph-name="instagram" unicode="&#xe819;" d="M698 716h-396c-93 0-168-76-168-168v-396c0-92 76-167 168-167h396c92 0 167 75 167 167v396c1 92-75 168-167 168z m140-564c0-77-63-140-140-140h-396c-77 0-140 63-140 140v396c0 77 63 140 140 140h396c77 0 140-63 140-140v-396z m-338 414c-119 0-216-97-216-216s97-216 216-216 216 97 216 216-97 216-216 216z m0-404c-104 0-188 84-188 188s84 188 188 188 188-84 188-188-84-188-188-188z m0 338c-83 0-150-67-150-150s67-150 150-150 150 67 150 150-67 150-150 150z m0-272c-67 0-122 55-122 122s55 122 122 122 122-54 122-122-54-122-122-122z m223 397c-28 0-50-22-50-51 0-28 22-50 50-50 28 0 51 22 51 50 0 29-23 51-51 51z m0-74c-12 0-23 11-23 23s11 24 23 24 23-11 23-24-10-23-23-23z" horiz-adv-x="1000" />

<glyph glyph-name="internet" unicode="&#xe81a;" d="M500 6c190 0 344 155 344 344s-154 344-344 344-344-154-344-344 154-344 344-344z m-251 153c20 11 42 22 64 30 14-45 34-88 60-128-50 22-92 55-124 98z m-65 177h105c1-41 7-81 16-120-25-10-49-21-72-34-29 45-46 97-49 154z m49 183c23-14 47-25 72-35-10-39-15-79-16-120h-105c3 57 20 109 49 155z m253 147v-190c-50 1-100 10-147 25 17 55 43 107 78 154 22 6 45 10 69 11z m97-11c35-47 61-99 78-153-47-16-97-24-147-26v190c24-1 47-5 69-11z m233-291h-105c-1 41-7 81-16 120 25 10 49 21 73 35 28-46 45-98 48-155z m-48-183c-24 14-48 25-73 35 10 39 15 79 16 120h105c-3-57-20-109-48-155z m-184-136c-23-6-46-10-70-11v190c50-1 100-10 147-25-17-54-42-105-76-151 0-1-1-2-1-3z m-169 3c-34 46-59 97-76 151 47 15 97 24 147 25v-190c-24 1-47 5-70 11 0 1-1 2-1 3z m71 204c-53-1-105-10-154-27-9 36-14 73-15 111h169v-84z m28 0v84h169c-1-38-6-75-15-111-49 16-101 26-154 27z m169 112h-169v84c53 1 105 10 154 27 9-36 14-73 15-111z m-197 84v-84h-169c1 38 6 75 15 111 49-16 101-26 154-27z m142-387c25 40 45 83 59 128 22-8 44-19 64-30-32-43-74-76-123-98z m123 480c-20-11-42-22-64-30-14 45-34 88-59 128 49-21 91-55 123-98z m-378 98c-26-40-46-83-60-128-22 9-44 19-64 31 32 42 74 76 124 97z" horiz-adv-x="1000" />

<glyph glyph-name="klimaschutz" unicode="&#xe81b;" d="M442 269h44v-125c0-7 7-13 14-13s14 6 14 13v225h45c39 0 72 33 72 73v58c0 8-6 14-14 14h-58c-39 0-71-31-73-70 0 0 0 0 0 0v-46c-12 10-27 16-44 16h-58c-8 0-14-6-14-14v-59c0-39 32-72 72-72z m117 217h44v-44c0-24-20-44-44-44h-17l15 15c6 5 6 14 0 20-5 5-14 5-19 0l-24-24v33c0 24 20 44 45 44z m-161-100h44c24 0 44-20 44-44v-22l-15 15c-5 6-14 6-20 0-5-5-5-14 0-19l18-18h-27c-25 0-45 20-45 44v44z m-50-323c53-43 120-77 152-77s99 34 153 77c97 78 111 151 111 187l-5 325c0 6-5 12-10 13l-245 75c-2 1-5 1-8 0l-250-75c-5-1-10-7-10-13v-325c0-36 15-109 112-187z m-84 502l236 71 231-71 5-315c0-74-63-136-101-166-56-45-115-70-135-70s-79 25-135 70c-37 30-101 92-101 166v315z" horiz-adv-x="1000" />

<glyph glyph-name="kreuzfahrt" unicode="&#xe81c;" d="M338 245c-22 0-40-18-40-40s18-40 40-40 40 18 40 40-18 40-40 40z m0-52c-6 0-12 5-12 12s6 12 12 12 13-6 13-12-6-12-13-12z m165 52c-22 0-40-18-40-40s18-40 40-40 40 18 40 40-17 40-40 40z m0-52c-6 0-12 5-12 12s6 12 12 12 13-6 13-12-6-12-13-12z m153 52c-22 0-40-18-40-40s18-40 40-40 40 18 40 40-18 40-40 40z m0-52c-7 0-12 5-12 12s5 12 12 12 12-6 12-12-5-12-12-12z m286 101h-111v61c0 8-6 14-14 14h-36v23c0 29-23 52-51 52h-32l-46 45c-5 6-14 6-19 0-6-5-6-14 0-19l26-27h-86l-46 46c-5 6-14 6-19 0-6-5-6-14 0-20l26-26h-86l-46 46c-5 5-14 5-19 0-6-6-6-14 0-20l26-26h-41c-8 0-14-6-14-14v-61h-111c-8 0-14-6-14-14v-61h-164c-6 0-11-4-13-9s-1-11 3-15l178-175c2-3 6-4 10-4h525c3 0 7 1 9 4l175 175c4 4 6 10 3 15-2 6-7 10-13 10z m-139 0h-347v47h347v-47z m-547 47h111c8 0 14 6 14 14v61h349c13 0 23-11 23-24v-23h-311c-8 0-14-6-14-14v-61h-172v47z m506-222h-514l-149 147h344 375 91l-147-147z" horiz-adv-x="1000" />

<glyph glyph-name="linkedin-ekw" unicode="&#xe81d;" d="M94 756v-812h812v812h-812z m298-333v-298h-93v298h93z m-46 42c-31 0-55 24-55 55s24 54 55 54 54-24 54-54-24-55-54-55z m202-82c19 30 51 47 87 47 57 0 103-46 103-103v-202h-93v176c0 27-22 50-50 50s-50-23-50-50v-176h-93v298h93v-44l3 4z" horiz-adv-x="1000" />

<glyph glyph-name="linkedin" unicode="&#xe81e;" d="M313 481h-149c-8 0-14-6-14-13v-469c0-8 6-14 14-14h149c8 0 14 6 14 14v469c0 7-6 13-14 13z m-14-468h-121v441h121v-441z m-61 703c-55 0-101-45-101-101 0-56 46-101 101-101 56 0 101 45 101 101 0 56-45 101-101 101z m0-174c-40 0-73 33-73 73s33 74 73 74 74-33 74-74-33-73-74-73z m451-50c-47 0-91-18-124-50v26c0 7-6 13-14 13h-148c-8 0-14-6-14-13v-469c0-8 6-14 14-14h148c8 0 14 6 14 14v275c0 34 28 62 62 62s62-28 62-62v-275c0-8 6-14 14-14h148c8 0 14 6 14 14v316c0 98-79 177-176 177z m149-479h-122v261c0 50-40 90-89 90s-89-41-89-90v-261h-122v441h122v-51c0 0 0 0 0 0 0 0 0-1 0-1 0-1 0-1 0-1 0-1 0-1 0-2 0 0 1-1 1-1 0 0 0-1 0-1 0-1 0-1 1-1 0-1 0-1 1-2 0 0 0 0 0-1 1 0 1 0 1 0 1 0 1-1 2-1 0 0 0 0 0 0 0-1 0-1 0-1 1 0 1 0 2-1 0 0 1 0 1 0 1 0 1 0 1 0 1 0 1 0 2-1 0 0 1 0 1 0 0 0 0 0 0 0 1 0 1 0 2 1 0 0 0 0 1 0 0 0 0 0 1 0 0 1 1 1 2 1 0 0 0 0 0 0 1 0 1 1 2 1 0 1 0 1 1 1 0 0 1 1 1 1 0 0 0 0 1 1 0 0 1 1 1 1 0 0 0 0 0 0 27 43 74 69 125 69 83 0 150-67 150-149v-303z" horiz-adv-x="1000" />

<glyph glyph-name="lupe" unicode="&#xe81f;" d="M418 129c81 0 155 30 210 81 4-4 9-9 15-15 6-5 11-10 15-14l-18-18c-5-5-5-14 0-19l193-193c3-3 6-4 10-4s7 1 10 4l53 53c5 5 5 14 0 20l-193 192c-3 3-6 5-10 5s-7-2-10-5l-15-15c-12 11-23 22-30 29 51 55 82 129 82 211 0 172-140 312-312 312s-312-140-312-312 140-312 312-312z m285 58l173-173-33-33-174 173 34 33z m-285 538c157 0 284-127 284-284s-127-285-284-285-285 128-285 285 128 284 285 284z m0-532c137 0 248 111 248 248s-112 248-248 248-249-111-249-248 112-248 249-248z m0 468c121 0 220-99 220-220s-99-220-220-220-221 98-221 220 99 220 221 220z" horiz-adv-x="1000" />

<glyph glyph-name="mail-teilen" unicode="&#xe820;" d="M453 340l-193-139v294l193-155z m269 165h-444l221-178 223 178z m-217-197c-1-1-3-2-6-2s-4 1-5 2l-26 21-189-137h440l-188 137-26-21z m401 446v-811h-812v811h812z m-149-240c0 1 0 1 0 1 0 1 0 1-1 1 0 0 0 1 0 1 0 0 0 1 0 1 0 0 0 0 0 1-1 0-1 0-1 0 0 1 0 1 0 1-1 0-1 0-1 0s0 1 0 1c-1 0-1 0-1 0 0 1-1 1-1 1 0 0-1 0-1 0 0 1 0 1-1 1 0 0 0 0-1 0 0 0 0 0 0 0-1 0-1 0-1 0 0 0 0 0-1 0h-496c0 0 0 0 0 0-1 0-1 0-1 0-1 0-1 0-1 0 0 0-1 0-1 0 0-1 0-1-1-1 0 0 0 0-1 0 0 0 0 0 0-1-1 0-1 0-1 0-1 0-1 0-1-1 0 0 0 0 0 0 0-1-1-1-1-1 0 0 0 0 0 0 0-1 0-1 0-1-1 0-1-1-1-1 0 0 0-1 0-1s0 0 0-1 0-1-1-1c0 0 0 0 0 0v-331 0c0 0 0-1 1-1 0-1 0-1 0-1 0 0 0-1 0-1 1 0 1-1 1-1 0 0 0 0 0-1 0 0 0 0 0 0 0 0 0 0 0-1 1 0 1-1 1-1l0 0c1 0 1-1 2-1 0 0 0 0 0 0 0 0 1-1 1-1 1 0 1 0 1 0 0 0 0 0 1 0 0 0 0 0 0 0 1-1 1-1 2-1h497v1c0 0 1 0 1 0 0 0 0 0 0 0 1 0 1 0 2 0 0 0 0 0 0 0 1 1 1 1 2 1 0 0 0 0 0 0 0 1 1 1 1 1l0 0c0 1 1 1 1 2 0 0 0 0 0 0 0 0 0 0 1 1 0 0 0 0 0 0 0 1 0 1 0 1 0 1 0 1 0 1 0 0 0 1 1 1 0 0 0 1 0 1v0 331c0 0 0 0 0 0z m-19-313v294l-192-154 192-140z" horiz-adv-x="1000" />

<glyph glyph-name="mail" unicode="&#xe821;" d="M877 86c0 0 0 0 0 0 1 0 1 0 2 0 0 0 0 0 1 0 1 0 1 0 2 1 0 0 0 0 1 0 0 0 1 1 1 1 0 0 0 0 1 0 0 1 1 1 1 1 0 0 1 1 1 1 0 0 1 1 1 1 0 0 0 0 0 1 0 0 1 1 1 1 0 0 0 1 0 1 1 1 1 1 1 2 0 0 0 0 0 1 0 0 0 1 1 1 0 1 0 1 0 2 0 0 0 0 0 0v500c0 0 0 0 0 1 0 0 0 1 0 1 0 1 0 1-1 1 0 1 0 1 0 2 0 0 0 1-1 1 0 0 0 1 0 1 0 1-1 1-1 2 0 0 0 0 0 0 0 0 0 0-1 1 0 0 0 1-1 1 0 0 0 0-1 1 0 0-1 0-1 1 0 0-1 0-1 0 0 0-1 0-1 1-1 0-1 0-2 0 0 0-1 0-1 0-1 0-1 0-1 0-1 0-1 0-1 0h-750c-1 0-1 0-1 0-1 0-1 0-2 0 0 0 0 0-1 0 0 0-1 0-1 0-1-1-1-1-1-1-1 0-1 0-2 0 0-1 0-1-1-1 0-1 0-1-1-1 0 0-1-1-1-1 0-1 0-1 0-1 0 0-1 0-1 0 0-1 0-1-1-2 0 0 0-1 0-1 0 0 0-1-1-1 0-1 0-1 0-2 0 0 0 0 0-1 0-1 0-1 0-1 0-1 0-1 0-1v-500c0 0 0 0 0 0 0-1 0-1 0-2 0 0 0-1 0-1 0-1 0-1 0-1 1-1 1-1 1-2 0 0 0 0 0-1 1 0 1-1 1-1 0 0 0 0 0-1 1 0 1-1 2-1 0 0 0-1 0-1 1 0 1-1 2-1 0 0 0 0 0 0 0 0 1-1 2-1 0 0 0 0 0 0 1-1 2-1 3-1 0 0 0 0 0 0 1 0 2 0 3 0 0 0 0 0 0 0h750z m-736 485l291-233-291-211v444z m361-253l-336 268h671l-335-268z m-48 2l39-31c3-2 6-3 9-3s6 1 8 3l39 31 285-206h-664l284 206z m118 18l291 233v-444l-291 211z" horiz-adv-x="1000" />

<glyph glyph-name="meine-projekte" unicode="&#xe822;" d="M347 194h12l56-166c2-5 7-9 13-9h173c7 0 12 4 13 9l56 166h12c8 0 14 6 14 14v75c0 8-6 14-14 14h-134l26 26c6 6 6 14 0 20-5 5-14 5-19 0l-27-27v67 75 61h61c49 0 89 40 89 89v75c0 8-6 14-14 14h-75c-48 0-88-40-88-89v-75-11c-16 15-38 25-62 25h-75c-7 0-13-6-13-14v-75c0-49 40-89 88-89h62v-53l-27 27c-5 5-14 5-20 0-5-6-5-14 0-20l27-26h-134c-8 0-14-6-14-14v-75c0-8 6-14 14-14z m245-147h-154l-49 147h252l-49-147z m-2 622h61v-61c0-34-28-61-61-61h-42l27 26c5 6 5 14 0 20-6 5-14 5-20 0l-26-27v42c0 33 27 61 61 61z m-211-211v61h61c33 0 61-28 61-61v-42l-27 27c-5 5-14 5-19 0-6-6-6-14 0-20l26-26h-41c-34 0-61 27-61 61z m-18-189h307v-47h-307v47z" horiz-adv-x="1000" />

<glyph glyph-name="news" unicode="&#xe823;" d="M525 450h226c8 0 14 6 14 14s-6 14-14 14h-226c-8 0-14-7-14-14s6-14 14-14z m0 81h226c8 0 14 6 14 14s-6 14-14 14h-226c-8 0-14-6-14-14s6-14 14-14z m-146-87h87c8 0 14 6 14 14v87c0 8-6 14-14 14h-87c-8 0-14-6-14-14v-87c0-8 6-14 14-14z m14 87h60v-60h-60v60z m-19-162h379c8 0 14 6 14 14s-6 13-14 13h-379c-8 0-14-6-14-13s6-14 14-14z m0-82h379c8 0 14 6 14 14s-6 14-14 14h-379c-8 0-14-6-14-14s6-14 14-14z m0-81h379c8 0 14 6 14 14s-6 14-14 14h-379c-8 0-14-6-14-14s6-14 14-14z m0-81h379c8 0 14 6 14 14s-6 14-14 14h-379c-8 0-14-7-14-14s6-14 14-14z m499 543h-616c-8 0-14-6-14-14v-258h-116c-8 0-14-6-14-13v-272c0-44 36-79 79-79h616c43 0 79 35 79 79v543c0 8-6 14-14 14z m-630-557c0-28-23-51-51-51-28 0-51 23-51 51v258h102v-258z m616 0c0-28-23-51-51-51h-556c12 14 19 31 19 51v529h588v-529z" horiz-adv-x="1000" />

<glyph glyph-name="pfeil-links" unicode="&#xe824;" d="M818 360h-599l207 207c6 6 6 14 0 20-5 6-14 6-19 0l-231-231c-1-1-2-2-2-2 0-1 0-1-1-1 0-1 0-1 0-2-1 0-1-1-1-1 0-1 0-1 0-1-1-2-1-4 0-6 0 0 0-1 0-1 0-1 0-1 1-1 0-1 0-1 0-2 1 0 1 0 1-1 0-1 1-1 2-2l231-231c2-3 6-4 9-4s8 1 10 4c6 5 6 14 0 19l-207 208h599c7 0 13 6 13 14s-5 14-13 14z" horiz-adv-x="1000" />

<glyph glyph-name="pfeil-oben" unicode="&#xe825;" d="M502 16c7 0 14 6 14 14v599l207-208c3-2 6-4 10-4s7 2 9 4c6 6 6 15 0 20l-231 231c0 1-1 1-2 2 0 0-1 0-1 0-1 1-1 1-2 1 0 1 0 1-1 1 0 0-1 0-1 0-2 0-4 0-6 0 0 0 0 0-1 0 0 0-1 0-1-1-1 0-1 0-2-1 0 0 0 0-1 0 0-1-1-1-2-2l-231-231c-6-5-6-14 0-20 3-2 6-4 10-4s7 2 9 4l208 208v-599c1-7 7-14 15-14z" horiz-adv-x="1000" />

<glyph glyph-name="firma" unicode="&#xe826;" d="M223 385l-58-58c-1-1-1-2-2-3 0 0 0 0 0-1 0 0-1 0-1-1 0-1 0-1-1-1 0-1 0-1 0-2 0 0 0-1 0-2v-321c0-8 6-14 14-14h425 300c8 0 14 6 14 14v550c0 7-6 13-14 13h-61v81c0 8-6 14-14 14h-61v50c0 8-6 14-14 14s-14-6-14-14v-50h-61c-8 0-14-6-14-14v-80h-61c-8 0-14-6-14-14v-157h-26c0 0 0 0 0 0l-58 58c-6 6-14 6-20 0-6-6-6-14 0-20l38-38h-94c0 0 0 0 0 0l-58 58c-5 6-14 6-20 0-5-6-5-14 0-20l39-38h-94c0 0 0 0 0 0l-59 58c-5 6-14 6-19 0-6-6-6-14 0-20l39-38h-21c-4 0-7-1-10-4z m363-228h-397v30h397v-30z m0 58h-397v30h397v-30z m0 58h-397v30h397v-30z m-397-144h397v-119h-397v119z m500 498h122v-67h-122v67z m-75-95h61 150 61v-522h-272v307 215z m-28-171v-30h-377l30 30h347z" horiz-adv-x="1000" />

<glyph glyph-name="pfeil-rechts" unicode="&#xe827;" d="M186 332h598l-207-207c-6-6-6-14 0-20 3-2 6-4 10-4s7 2 9 4l232 231c0 1 1 2 1 3 0 0 0 0 1 1 0 0 0 1 1 1 0 1 0 1 0 2 0 0 0 0 0 1 1 1 1 3 0 5 0 1 0 1 0 1 0 1 0 1 0 2-1 0-1 1-1 1-1 0-1 1-1 1 0 1-1 2-1 2l-232 232c-5 5-14 5-19 0-6-6-6-15 0-20l207-207h-598c-8 0-14-7-14-14s6-15 14-15z" horiz-adv-x="1000" />

<glyph glyph-name="pfeil-s-oben" unicode="&#xe828;" d="M508 506c-5 6-14 6-20 0l-293-293c-5-5-5-14 0-19 3-3 7-5 10-5s7 2 10 5l283 283 283-283c3-3 7-5 10-5s7 2 10 5c5 5 5 14 0 19l-293 293z" horiz-adv-x="1000" />

<glyph glyph-name="pfeil-s-rechts" unicode="&#xe829;" d="M362 653c-6 6-14 6-20 0-6-5-6-14 0-20l283-283-283-283c-6-6-6-14 0-20 3-3 6-4 10-4s7 1 9 4l293 293c6 6 6 14 0 20l-292 293z" horiz-adv-x="1000" />

<glyph glyph-name="pfeil-s-unten" unicode="&#xe82a;" d="M782 506l-284-283-283 283c-6 6-14 6-20 0-5-5-5-14 0-19l293-293c3-3 7-5 10-5s7 2 10 5l293 293c5 5 5 14 0 19-5 6-14 6-19 0z" horiz-adv-x="1000" />

<glyph glyph-name="pfeil-unten" unicode="&#xe82b;" d="M723 271l-207-207v598c0 8-6 14-14 14s-14-6-14-14v-598l-207 207c-6 5-15 5-20 0-6-6-6-14 0-20l231-231c1-1 1-1 2-2 0 0 1 0 1 0 1 0 1-1 2-1 0 0 1 0 1-1 0 0 1 0 1 0 1 0 2 0 3 0s2 0 3 0c0 0 1 0 1 0 0 0 1 1 1 1 1 0 1 1 2 1 0 0 0 0 1 0 1 1 1 1 2 2l231 231c6 6 6 14 0 20-6 5-15 5-20 0z" horiz-adv-x="1000" />

<glyph glyph-name="planung" unicode="&#xe82c;" d="M274 112h-24c-8 0-14-6-14-14v-97c0-8 6-14 14-14h500c8 0 14 6 14 14v97c0 8-6 14-14 14h-24c0 23-16 41-37 47v25h61c8 0 14 6 14 14s-6 13-14 13h-37c-6 92-79 166-170 175l17 68 84-31c13-12 30-19 48-19 18 0 36 7 49 20s20 30 20 49c0 18-7 35-19 48l-98 127 14 45c1 4 0 9-3 12-2 4-6 6-11 6-207 0-376-169-376-377 0-42 7-83 21-123h-39c-8 0-14-6-14-14s6-14 14-14h62v-24c-22-5-38-24-38-47z m425-1c0-3-1-5-2-8-1-4-1-9 2-13s7-6 11-6h26v-69h-472v69h26c4 0 9 3 11 6s3 9 2 13c-1 3-2 5-2 8 0 12 11 23 24 23h0 350c13 0 24-11 24-23z m-404 224c0 186 146 338 330 348l-10-33c-2-5-1-9 2-13l103-133c0-1 1-1 1-1 8-8 12-19 12-30 0-11-4-21-12-29s-18-12-29-12c-10 0-20 4-27 10-2 3-4 5-7 6l-103 38c-4 1-8 1-11-1-4-2-6-5-7-9l-25-100c-1-4 0-9 2-12 3-3 7-5 11-5 84 0 153-65 161-148h-11-350-7c-15 40-23 81-23 124z m366-151v-23h-322v23h322z" horiz-adv-x="1000" />

<glyph glyph-name="plus" unicode="&#xe82d;" d="M818 360h-302v302c0 8-7 14-14 14s-14-6-14-14v-302h-302c-8 0-14-6-14-14s6-14 14-14h302v-302c0-8 6-14 14-14s14 6 14 14v302h302c8 0 14 6 14 14s-6 14-14 14z" horiz-adv-x="1000" />

<glyph glyph-name="preis-1" unicode="&#xe82e;" d="M509 210h-24v95c0 2 0 3-1 3-1 1-1 1-3 1l-34-9c-3 0-3-2-3-4v-5c0-2 0-2 1-3 0 0 1-1 3 0l23 5v-83h-24c-2 0-4-1-4-4v-5c0-2 2-3 4-3h62c2 0 4 1 4 3v5c0 3-2 4-4 4z m229 166c-4 0-8 0-12 0-7 57-55 100-113 100-9 0-17 0-26-2-6 12-14 24-24 34l-2 2-48-158c-7 2-14 5-22 6l-25 77 34 111-1 1c-24 6-49 6-73 0l-1-1 56-187c-2 0-4 0-6 0-22 0-43-7-60-19l-51 168 0 2-2-2c-15-16-27-35-33-57-59-4-105-54-105-113 0-13 2-25 5-37-1 0-3 0-4 0-56 0-101-45-101-101s45-101 101-101h526v0c34 4 66 20 89 45 23 25 36 59 36 94 0 76-62 138-138 138z m-263-217c-53 0-96 43-96 96s43 96 96 96 96-43 96-96-43-96-96-96z" horiz-adv-x="1000" />

<glyph glyph-name="preis-2" unicode="&#xe82f;" d="M508 210h-49v19c0 6 5 7 10 9l27 9c7 2 15 9 15 21v17c0 16-11 24-33 24-23 0-34-8-34-24v-9c0-3 2-4 4-4h6c2 0 4 1 4 4v7c0 8 3 14 20 14 17 0 20-6 20-14v-16c0-6-6-9-9-9l-29-10c-3-1-14-5-14-18v-28c0-3 1-4 4-4h59c2 0 3 1 3 4v5c-1 2-2 3-4 3z m230 166c-4 0-8 0-12 0-7 57-55 100-113 100-9 0-17 0-26-2-6 12-14 24-24 34l-2 2-48-158c-7 2-14 5-22 6l-25 77 34 111-1 1c-24 6-49 6-73 0l-1-1 56-187c-2 0-4 0-6 0-22 0-43-7-60-19l-51 168 0 2-2-2c-15-16-27-35-33-57-59-4-105-54-105-113 0-13 2-25 5-37-1 0-3 0-4 0-56 0-101-45-101-101s45-101 101-101h526v0c34 4 66 20 89 45 23 25 36 59 36 94 0 76-62 138-138 138z m-167-121c0-53-43-96-96-96s-96 43-96 96 43 96 96 96 96-43 96-96z" horiz-adv-x="1000" />

<glyph glyph-name="preis-3" unicode="&#xe830;" d="M499 256c9 4 11 11 11 18v12c0 16-11 24-33 24s-33-8-33-25v-3c0-3 1-4 4-4h6c3 0 4 1 4 4v2c0 7 2 13 19 13 16 0 19-5 19-13v-9c0-8-3-13-19-13h-13c-3 0-4-1-4-4v-5c0-2 1-3 4-3h14c16 0 19-5 19-14v-14c0-7-2-14-20-14-17 0-19 7-19 14v2c0 2-2 4-4 4h-6c-3 0-4-2-4-4v-4c0-16 11-24 34-24 22 0 33 8 33 24v18c0 7-2 15-12 18z m239 120c-4 0-8 0-12 0-7 57-55 100-113 100-9 0-17 0-26-2-6 12-14 24-24 34l-2 2-48-158c-7 2-14 5-22 6l-25 77 34 111-1 1c-24 6-49 6-73 0l-1-1 56-187c-2 0-4 0-6 0-22 0-43-7-60-19l-51 168 0 2-2-2c-15-16-27-35-33-57-59-4-105-54-105-113 0-13 2-25 5-37-1 0-3 0-4 0-56 0-101-45-101-101s45-101 101-101h526v0c34 4 66 20 89 45 23 25 36 59 36 94 0 76-62 138-138 138z m-167-121c0-53-43-96-96-96s-96 43-96 96 43 96 96 96 96-43 96-96z" horiz-adv-x="1000" />

<glyph glyph-name="preis-leer" unicode="&#xe831;" d="M738 376c-4 0-8 0-12 0-7 57-55 100-113 100-9 0-17 0-26-2-6 12-14 24-24 34l-2 2-48-158c-7 2-14 5-22 6l-25 77 34 111-1 1c-24 6-49 6-73 0l-1-1 56-187c-2 0-4 0-6 0-22 0-43-7-60-19l-51 168 0 2-2-2c-15-16-27-35-33-57-59-4-105-54-105-113 0-13 2-25 5-37-1 0-3 0-4 0-56 0-101-45-101-101s45-101 101-101h526v0c34 4 66 20 89 45 23 25 36 59 36 94 0 76-62 138-138 138z m-167-121c0-53-43-96-96-96s-96 43-96 96 43 96 96 96 96-43 96-96z" horiz-adv-x="1000" />

<glyph glyph-name="preis-plakat" unicode="&#xe832;" d="M587 366h-23c0-7 0-13 0-19 0-22-3-39-8-53 26 9 35 38 35 53 0 14 0 19-4 19z m150 9c-5 0-9 0-13-1-6 57-54 101-112 101-9 0-16-1-24-2-23 46-71 79-127 79-64 0-118-43-135-103-57-5-102-53-102-111 0-14 2-26 7-38-3 0-5 0-7 0-55 0-100-45-100-100s45-100 100-100h525v1c70 6 125 65 125 137 0 75-61 137-137 137z m-191-101c-17-27-42-28-42-37v-30c20-1 39-3 50-7 0-1 0-3 0-9 0-9 0-9-9-9h-110c-9 0-9 0-9 9 0 6 0 8 0 9 13 4 31 6 50 7v30c0 9-24 11-42 37-38 4-63 39-63 78 0 18 4 32 13 32h34c1 6 2 12 3 19h138c2-7 3-13 4-19h33c9 0 14-14 14-32 0-40-25-75-64-78z m-129 92h-23c-5 0-5-5-5-19 0-15 10-44 35-53-4 14-7 31-7 53 0 6 0 12 0 19z" horiz-adv-x="1000" />

<glyph glyph-name="publikums-preis" unicode="&#xe833;" d="M738 375c-5 0-9 0-14-1-5 57-53 101-111 101-9 0-17-1-24-2-23 46-71 79-127 79-64 0-119-43-135-103-58-5-102-53-102-111 0-14 2-26 6-38-2 0-4 0-6 0-55 0-100-45-100-100s45-100 100-100h525v1c70 6 125 65 125 137 0 75-62 137-137 137z m-190-12c-14 0-25 11-25 25s11 25 25 25c14 0 25-12 25-25s-11-25-25-25c28 0 50-23 50-50-25 0-75 0-100 0 0 27 23 50 50 50z m-125 0c-14 0-25 11-25 25s11 25 25 25c14 0 25-12 25-25s-11-25-25-25c28 0 50-23 50-50-25 0-75 0-100 0 0 27 23 50 50 50z m-110-175c0 27 23 50 50 50-14 0-25 11-25 25s11 25 25 25 25-12 25-25-11-25-25-25c28 0 50-23 50-50-25 0-75 0-100 0z m125 0c0 27 23 50 50 50-14 0-25 11-25 25s11 25 25 25 25-12 25-25-11-25-25-25c28 0 50-23 50-50-25 0-75 0-100 0z m125 0c0 27 23 50 50 50-14 0-25 11-25 25s11 25 25 25 25-12 25-25-11-25-25-25c28 0 50-23 50-50-25 0-75 0-100 0z" horiz-adv-x="1000" />

<glyph glyph-name="rechner" unicode="&#xe834;" d="M836 689h-668c-7 0-14-6-14-14v-334c0 0 0 0 0 0s0 0 0 0v-334c0-8 7-14 14-14h334c0 0 0 0 0 0s1 0 1 0h333c8 0 14 6 14 14v668c0 8-6 14-14 14z m-13-334h-307v306h306v-306z m-335 306v-306h-306v306h306z m-306-334h306v-306h-306v306z m334-306v306h306v-306h-306z m-281 462h87v-86c0-8 6-14 14-14s13 6 13 14v86h87c8 0 14 6 14 14 0 8-6 14-14 14h-87v86c0 8-6 14-13 14s-14-6-14-14v-86h-87c-7 0-14-7-14-14 0-8 7-14 14-14z m334 0h200c8 0 14 6 14 14 0 8-6 14-14 14h-200c-8 0-14-6-14-14 0-8 6-14 14-14z m200-263h-200c-8 0-14-6-14-14s6-14 14-14h200c8 0 14 6 14 14s-6 14-14 14z m0-89h-200c-8 0-14-6-14-13s6-14 14-14h200c8 0 14 6 14 14s-6 13-14 13z m-414 36l61 61c6 5 6 14 0 20-5 5-14 5-20 0l-61-62-61 62c-5 5-14 5-20 0-5-6-5-15 0-20l62-61-62-61c-5-6-5-15 0-20 3-3 7-4 10-4s7 1 10 4l61 61 61-61c3-3 7-4 10-4s7 1 10 4c5 5 5 14 0 20l-61 61z" horiz-adv-x="1000" />

<glyph glyph-name="schliessen" unicode="&#xe835;" d="M269 113c2-3 6-4 9-4s8 1 10 4l214 214 214-214c2-3 6-4 9-4s8 1 10 4c6 5 6 14 0 20l-214 213 214 214c5 6 5 14 0 20-6 5-14 5-20 0l-214-214-213 214c-6 5-14 5-20 0-5-6-5-14 0-20l214-214-214-213c-5-6-5-15 1-20z" horiz-adv-x="1000" />

<glyph glyph-name="sensibilisierung" unicode="&#xe836;" d="M500 389c-79 0-144-65-144-144s65-144 144-144c79 0 144 65 144 144s-65 144-144 144z m0-260c-64 0-116 52-116 116s52 116 116 116 116-52 116-116-52-116-116-116z m0 332c8 0 14 6 14 14v126l41-41c3-3 7-4 10-4s7 1 10 4c5 6 5 14 0 20l-65 65c-3 2-6 4-10 4s-7-1-10-4l-65-65c-5-6-5-14 0-20 6-6 14-6 20 0l41 41v-126c0-8 6-14 14-14z m-291-2h64c7 0 13 6 13 14s-6 13-13 13h-98c-8 0-14-6-14-13v-98c0-8 6-14 14-14 8 0 14 6 14 14v64l75-75c3-3 6-4 10-4s7 1 9 4c6 5 6 14 0 20l-74 75z m616 27h-97c-8 0-14-6-14-13s6-14 14-14h63l-75-75c-5-6-5-15 0-20 3-3 7-4 10-4s7 1 10 4l75 75v-64c0-8 6-14 14-14s14 6 14 14v98c0 7-6 13-14 13z" horiz-adv-x="1000" />

<glyph glyph-name="solar" unicode="&#xe837;" d="M664 350c0 90-74 164-164 164s-164-74-164-164 74-164 164-164 164 74 164 164z m-164-136c-75 0-136 61-136 136s61 136 136 136 136-61 136-136-61-136-136-136z m-14 536v-200c0-8 6-14 14-14s14 6 14 14v200c0 8-6 14-14 14s-14-6-14-14z m0-600v-200c0-8 6-14 14-14s14 6 14 14v200c0 8-6 14-14 14s-14-6-14-14z m414 214h-200c-8 0-14-6-14-14s6-14 14-14h200c8 0 14 6 14 14s-6 14-14 14z m-586-14c0 8-6 14-14 14h-200c-8 0-14-6-14-14s6-14 14-14h200c8 0 14 6 14 14z m479 293c-6 5-14 5-20 0l-141-142c-6-5-6-14 0-19 2-3 6-4 9-4s8 1 10 4l142 141c5 5 5 14 0 20z m-425-425c-5 6-14 6-19 0l-142-141c-5-6-5-14 0-20 3-3 7-4 10-4s7 1 10 4l141 142c6 5 6 14 0 19z m283 0c-5 6-14 6-20 0-5-5-5-14 0-19l142-142c3-3 6-4 10-4s7 1 9 4c6 6 6 14 0 20l-141 141z m-444 405l142-141c2-3 6-4 9-4s8 1 10 4c6 5 6 14 0 19l-141 142c-6 5-14 5-20 0-5-6-5-15 0-20z" horiz-adv-x="1000" />

<glyph glyph-name="spenden" unicode="&#xe838;" d="M244 384h-75c-8 0-14-6-14-13v-300c0-8 6-14 14-14h75c7 0 14 6 14 14v36h361c3 0 7 1 9 4l200 200c23 22 23 59 0 82-22 22-59 22-82 0l-133-133h-36c3 7 5 15 5 23 0 28-23 51-51 51h-273v37c0 7-7 13-14 13z m-14-300h-47v273h47v-273z m301 223c13 0 24-11 24-24 0-12-9-22-21-23h-140c-8 0-14-6-14-14s6-14 14-14h135c0 0 1 0 2 0 2 0 3 0 5 0h83c4 0 7 1 10 4l137 137c12 12 31 12 43 0 11-11 11-30 0-42l-196-196h-355v172h273z m-17 210v99c0 8-6 14-14 14s-14-6-14-14v-99c0-8 7-14 14-14s14 6 14 14z m113 49c0 70-57 127-127 127-70 0-126-57-126-127s57-126 126-126c70 0 127 57 127 126z m-226 0c0 55 45 99 99 99 55 0 99-44 99-99s-45-98-99-98c-54 0-99 44-99 98z" horiz-adv-x="1000" />

<glyph glyph-name="checkmark" unicode="&#xe839;" d="M432 56l-254 197a37 37 0 0 0 45 58l198-154 372 449a37 37 0 1 0 57-47z" horiz-adv-x="1000" />

<glyph glyph-name="stern-2" unicode="&#xe83a;" d="M874 460l-250 37-111 226c-3 5-8 8-13 8s-10-3-12-8l-112-226-250-37c-5-1-10-4-11-9-2-5-1-11 3-14l181-177-43-249c-1-5 1-10 6-14 4-3 10-3 14-1l224 118 224-118c2-1 4-1 6-1 3 0 6 1 8 2 4 4 6 9 6 14l-43 249 181 176c4 4 5 10 3 15-1 5-6 8-11 9z m-198-185c-3-3-5-8-4-12l39-229-205 108c-2 1-4 2-6 2s-5-1-7-2l-205-108 39 229c1 4-1 9-4 12l-166 162 230 33c4 1 8 4 10 8l103 207 102-207c2-5 6-7 11-8l229-33-166-162z m-116-17h-91v37c0 13 10 16 19 19l50 16c8 3 26 12 26 36v32c0 23-13 42-60 42-47 0-59-19-59-42v-17c0-3 1-5 5-5h11c3 0 5 2 5 5v13c0 18 8 29 38 29 31 0 39-11 39-29v-29c0-13-11-19-17-20l-53-18c-10-3-25-10-25-31v-52c0-3 1-4 4-4h108c3 0 4 1 4 4v10c0 3-1 4-4 4z" horiz-adv-x="1000" />

<glyph glyph-name="stern-3" unicode="&#xe83b;" d="M885 451c-1 5-6 8-11 9l-250 37-111 226c-3 5-8 8-13 8s-10-3-12-8l-112-226-250-37c-5-1-10-4-11-9-2-5-1-11 3-14l181-177-43-249c-1-5 1-10 6-14 2-1 5-2 8-2 2 0 4 0 6 1l224 118 223-118c5-2 11-2 15 1 4 4 6 9 6 14l-43 249 181 176c4 4 5 10 3 15z m-209-176c-3-3-5-8-4-12l39-229-205 108c-4 2-9 2-13 0l-205-108 39 229c1 4-1 9-4 12l-166 162 229 33c5 1 9 4 11 8l102 207 103-207c2-5 6-7 11-8l229-33-166-162z m-141 70c20 5 25 16 25 32v21c0 24-11 42-57 42-46 0-58-19-58-42v-7c0-2 1-4 4-4h12c3 0 5 1 5 4v4c0 17 7 28 37 28 30 0 37-11 37-28v-15c0-17-7-27-38-27h-24c-3 0-4-1-4-4v-9c0-2 1-4 4-4h26c31 0 38-10 38-27v-26c0-17-9-28-39-28-30 0-39 11-39 28v4c0 2-1 4-4 4h-12c-3 0-4-1-4-4v-7c0-23 13-42 59-42 47 0 60 18 60 42v32c-1 16-6 28-28 33z" horiz-adv-x="1000" />

<glyph glyph-name="stern-leer" unicode="&#xe83c;" d="M877 460l-250 37-111 226c-3 5-8 8-13 8s-10-3-12-8l-112-226-250-37c-5-1-10-4-11-9-2-5 0-11 3-14l181-177-43-249c-1-5 1-10 6-14 2-1 5-2 8-2 2 0 4 0 6 1l224 118 223-118c5-2 11-2 15 1 4 4 7 9 6 14l-43 249 181 176c4 4 5 10 3 15-1 5-6 8-11 9z m-198-185c-3-3-5-8-4-12l39-229-205 108c-4 2-9 2-13 0l-205-108 39 229c1 4-1 9-4 12l-166 162 229 33c5 1 9 4 11 8l103 208 103-208c2-4 5-7 10-8l230-33-167-162z" horiz-adv-x="1000" />

<glyph glyph-name="teilen" unicode="&#xe83d;" d="M502 306c7 0 14 6 14 13v360l120-120c2-2 6-4 9-4s8 2 10 4c6 6 6 15 0 20l-144 144c0 0-1 1-2 1 0 1 0 1-1 1 0 0-1 1-1 1-1 0-1 0-2 0 0 0-1 1-1 1-1 0-3 0-5 0-1 0-1-1-1-1-1 0-1 0-2 0 0 0-1-1-1-1-1 0-1 0-1-1-1 0-2-1-3-1l-143-144c-6-5-6-14 0-20 3-2 6-4 10-4s7 2 9 4l120 120v-360c1-7 7-13 15-13z m-236-333h472c7 0 13 6 13 14v472c0 8-6 14-13 14h-141c-8 0-14-6-14-14s6-14 14-14h127v-444h-444v444h126c8 0 14 6 14 14s-6 14-14 14h-140c-8 0-14-6-14-14v-472c0-8 6-14 14-14z" horiz-adv-x="1000" />

<glyph glyph-name="to-do" unicode="&#xe83e;" d="M175 53h650c8 0 14 6 14 13v550c0 8-6 14-14 14h-111v36c0 8-6 14-14 14s-14-6-14-14v-36h-372v36c0 8-6 14-14 14s-14-6-14-14v-36h-111c-8 0-14-6-14-14v-550c0-7 6-13 14-13z m14 27v423h622v-423h-622z m97 523v-37c0-7 6-13 14-13s14 6 14 13v37h372v-37c0-7 6-13 14-13s14 6 14 13v37h97v-73h-622v73h97z m414-168h-275c-7 0-14-6-14-14s7-14 14-14h275c8 0 14 6 14 14s-6 14-14 14z m0-125h-275c-7 0-14-6-14-14s7-14 14-14h275c8 0 14 6 14 14s-6 14-14 14z m0-125h-275c-7 0-14-6-14-14s7-14 14-14h275c8 0 14 6 14 14s-6 14-14 14z m-350 287h-75c-8 0-14-6-14-14v-75c0-7 6-14 14-14h75c8 0 14 7 14 14v75c0 8-6 14-14 14z m-14-75h-47v47h47v-47z m14-50h-75c-8 0-14-6-14-14v-75c0-7 6-14 14-14h75c8 0 14 7 14 14v75c0 8-6 14-14 14z m-14-75h-47v47h47v-47z m14-50h-75c-8 0-14-6-14-14v-75c0-7 6-14 14-14h75c8 0 14 7 14 14v75c0 8-6 14-14 14z m-14-75h-47v47h47v-47z" horiz-adv-x="1000" />

<glyph glyph-name="twitter-ekw" unicode="&#xe83f;" d="M94-56h812v812h-812v-812z m600 503c0-4 0-8 0-12 0-155-127-282-282-282-53 0-104 15-148 42 11-3 23-4 35-4 40 0 77 17 103 47l2 2-3 0c-38 8-71 32-88 66 8-1 31-5 51-1l5 1-5 2c-46 14-80 53-88 101 15-10 33-18 51-21l5 0-4 3c-27 24-43 59-43 95 0 17 3 33 9 48 31-65 97-106 168-106 13 0 26 1 38 4l3 1 0 1c-1 5-2 10-2 15 0 53 43 96 97 96 26 0 53-11 71-31l2-3 0 0c30 6 42 13 57 24 1 0 1 0 2 1-12-31-39-52-39-53l-4-3 4 1c18 2 35 7 50 15-12-19-27-35-47-47l-1 0 1-2z" horiz-adv-x="1000" />

<glyph glyph-name="twitter" unicode="&#xe840;" d="M915 560c-5 3-10 2-14-1 0 0 0 0-1 0-11-6-22-11-34-15 13 16 27 37 36 62 2 6 0 12-5 16-4 3-11 4-16 0-3-1-5-3-8-5-23-15-38-25-76-33-32 33-76 52-121 52-93 0-168-76-168-168 0-4 0-9 1-13-16-2-31-4-47-4-108 0-207 64-253 162 0 1 0 1 0 1 0 1 0 1-1 1 0 1 0 1-1 2 0 0 0 0 0 1-1 0-1 0-2 1 0 0 0 0 0 0-1 0-1 1-2 1 0 0 0 0 0 0 0 0-1 0-1 0 0 1-1 1-2 1 0 0 0 0-1 0 0 0-1 0-1 0-1 0-1 0-1 0-1 0-1 0-2 0-1 0-1 0-1 0-1 0-1 0-2 0 0 0 0-1-1-1 0 0 0 0 0 0-1 0-1 0-2-1 0 0 0 0-1 0 0 0 0-1-1-1 0 0-1-1-1-1 0 0-1-1-1-1 0 0-1-1-1-1 0-1 0-1 0-1 0-1-1-1-1-1 0 0 0 0 0 0 0 0 0 0 0 0-12-27-17-56-17-86 0-45 14-88 39-124-11 5-22 11-32 18-7 5-15 3-20-3-2-3-3-7-2-10 0-1 0-1 0-1 9-62 45-117 96-150-14 1-23 4-23 4-5 1-11-1-14-5-3-4-4-10-2-15 27-53 74-93 130-111-37-33-84-52-135-52-22 0-44 3-65 11-1 0-1 0-1 0-1 0-1 0-2 0 0 0-1 0-1 0-1 0-1 0-1 0-1 0-1 0-2 0 0 0-1 0-1 0-1 0-1 0-2 0 0-1 0-1-1-1 0 0-1 0-1 0 0-1-1-1-1-1 0-1-1-1-1-1 0 0-1-1-1-1 0 0-1-1-1-1 0 0-1-1-1-1 0 0 0 0 0 0 0 0 0-1 0-1-1-1-1-1-1-2 0 0 0 0 0 0 0 0 0-1 0-1-1 0-1-1-1-1 0-1 0-1 0-2 0 0 0-1 0-1 0 0 0-1 0-1 0-1 0-1 1-1 0-1 0-1 0-2 0 0 0 0 1-1 0 0 0-1 0-1 0-1 1-1 1-1 0 0 1-1 1-1 0-1 0-1 1-1 0-1 0-1 1-1 0-1 0-1 1-1 75-51 164-78 256-78 254 0 461 207 461 462 0 3 0 7 0 11 32 21 58 49 77 83 4 6 1 14-5 18z m-91-81c-5-2-9-7-9-13 1-6 1-12 1-18 0-240-195-434-434-434-60 0-119 12-173 36 64 1 124 29 166 77 2 2 3 4 4 6 0 0 0 0 0 1 0 0 0 0 0 1 0 0 0 0 0 0 1 1 1 2 1 3 0 0 0 0 0 0 0 3-2 7-5 10-2 2-5 3-8 3-48 10-91 38-118 78 17-2 39-3 60 1 0 0 0 0 0 0 1 0 1 0 1 0 0 0 0 0 1 1 0 0 1 0 1 0 1 0 1 0 1 0 1 1 1 1 2 1 0 0 0 1 0 1 1 0 2 1 2 1 0 0 1 0 1 0 0 1 0 2 1 2 0 0 0 1 0 1 0 0 1 1 1 1 0 0 0 1 0 1 0 0 1 0 1 0 0 1 0 1 0 1 0 1 0 1 0 2 0 0 0 1 0 1 0 1 0 1 0 1 0 1 0 2 0 2 0 0 0 1 0 1 0 0 0 0-1 0 0 1 0 1 0 2-1 0-1 0-1 1 0 0 0 1 0 1-1 0-1 1-1 1 0 0-1 1-1 1 0 0-1 1-1 1 0 0-1 0-1 1 0 0-1 0-1 1 0 0-1 0-1 0-1 0-1 0-2 1 0 0 0 0 0 0-60 18-107 66-125 124 19-9 39-16 60-20 0 0 0 0 0 0 0 0 0 0 0 0 1 0 2 0 3 0 0 0 2 0 2 0 1 0 1 0 1 1 1 0 1 0 2 0 0 0 1 1 1 1 1 0 1 0 2 1 0 0 0 0 1 0 0 1 1 1 1 2 0 0 0 0 0 0 0 0 0 0 0 0 1 0 2 1 2 2 0 0 0 0 0 1 1 0 1 1 1 2 0 0 1 0 1 1 0 0 0 1 0 1 0 0 0 0 0 0 0 1 0 1 0 2 0 0 0 1 0 1 0 0 0 1 0 1 0 1 0 1-1 2 0 0 0 0 0 1-1 0-1 1-1 1 0 0 0 1 0 1-1 1-1 1-1 1-1 1-1 1-1 1 0 0-1 1-1 1 0 0 0 0 0 1-41 35-64 87-64 141 0 16 2 31 5 46 55-92 155-149 263-149 21 0 42 2 62 6l2 0c7 2 12 9 11 16-1 7-2 15-2 22 0 77 63 140 140 140 40 0 78-17 104-46 0 0 0-1 1-1 3-4 8-7 14-6 26 5 44 11 59 18-18-25-38-41-38-42-5-3-7-10-5-16 3-5 8-8 13-8 1 0 1 0 1 0 15 1 29 4 43 8-12-14-27-26-43-36z" horiz-adv-x="1000" />

<glyph glyph-name="wald" unicode="&#xe841;" d="M368 74h118v-128c0-7 6-14 14-14s14 7 14 14v128h118c129 0 234 105 234 234 0 90-52 171-133 210 0 5 1 11 1 16 0 129-105 233-234 233s-234-104-234-233c0-5 1-10 1-16-81-39-133-120-133-210 0-129 105-234 234-234z m-81 423c6 3 9 8 8 14-1 8-1 15-1 23 0 113 92 205 206 205s206-92 206-205c0-8 0-15-1-23-1-6 3-12 8-14 76-32 125-106 125-189 0-114-92-206-206-206h-118v56l100 100c5 6 5 14 0 20-6 5-15 5-20 0l-80-80v274c0 7-6 14-14 14s-14-7-14-14v-160l-82 82c-5 5-14 5-19 0-6-6-6-14 0-20l101-101v-171h-118c-114 0-206 92-206 206 0 82 49 157 125 189z" horiz-adv-x="1000" />

<glyph glyph-name="warenkorb" unicode="&#xe842;" d="M825 539h-588l-24 90c-1 5-7 10-13 10h-100c-8 0-14-6-14-14s6-14 14-14h89l122-465c2-6 8-10 14-10h400c8 0 14 6 14 14s-6 14-14 14h-389l-13 47h427c6 0 12 5 14 11l75 300c1 4 0 8-3 12-3 3-7 5-11 5z m-386-162v134h172v-133h-172z m172-28v-110h-172v111h172z m-200 162v-133h-132l-35 133h167z m-124-162h124v-110h-95l-29 110z m452-110h-100v111h128l-28-111z m35 138h-135v134h168l-33-134z m-399-263c-35 0-64-29-64-64s29-64 64-64 64 29 64 64-29 64-64 64z m0-100c-20 0-36 16-36 36s16 36 36 36c20 0 36-16 36-36s-16-36-36-36z m300 100c-35 0-64-29-64-64s29-64 64-64 64 29 64 64-29 64-64 64z m0-100c-20 0-36 16-36 36s16 36 36 36 36-16 36-36-16-36-36-36z" horiz-adv-x="1000" />

<glyph glyph-name="wasser-sparen" unicode="&#xe843;" d="M726 96h125c7 0 13 7 13 14v75c0 104-84 189-188 189h-112v69l109-21c1-1 2-1 3-1 48 0 88 40 88 89s-40 89-88 89c-1 0-2 0-3 0l-113-23c-16 15-37 23-59 23s-44-8-60-23l-113 23c0 0-2 0-2 0-49 0-89-40-89-89s40-89 89-89c0 0 2 0 2 1l109 21v-69h-236c-8 0-14-6-14-14v-125c0-7 6-14 14-14h475c20 0 36-16 36-36v-75c0-7 6-14 14-14z m-49 475c33 0 60-27 60-61s-27-60-60-61l-98 20c7 12 10 26 10 41s-3 29-10 42l98 19z m-115-61c0-33-28-61-61-61s-62 28-62 61 28 61 62 61 61-27 61-61z m-238-61c-33 1-60 28-60 61s27 61 60 61l98-19c-7-13-10-27-10-42s4-29 10-41l-98-20z m352-200h-462v97h237c7 0 13 7 13 14v69c12-5 24-8 37-8s25 3 36 8v-69c0-7 6-14 14-14h125c88 0 161-72 161-161v-61h-98v61c0 36-28 64-63 64z" horiz-adv-x="1000" />

<glyph glyph-name="wasserkraft" unicode="&#xe844;" d="M220 28c29 0 58 11 81 34 16 16 37 25 60 25s45-9 61-25c0 0 0 0 0 0 22-23 52-34 81-34 29 0 58 11 80 34 17 16 38 25 61 25s45-9 61-25c0 0 0 0 0 0 22-23 51-34 81-34 29 0 58 11 80 34 6 5 6 14 0 19-5 6-14 6-20 0-33-33-88-33-121 0 0 0 0 0 0 0-22 22-50 34-81 34-30 0-59-12-80-34-34-33-88-33-122 0 0 0 0 0 0 0-21 22-50 34-81 34-30 0-58-12-80-34-34-33-88-33-122 0-5 6-14 6-20 0-5-5-5-14 0-19 23-23 52-34 81-34z m-81 117c22-21 50-33 81-33 31 0 59 12 81 33 5 6 5 14 0 20-6 6-15 6-20 0-17-16-38-25-61-25-23 0-45 9-61 25-5 6-14 6-20 0-5-6-5-14 0-20z m0 100c22-21 50-33 81-33 31 0 59 12 81 33 0 0 0 0 0 0 33 34 88 34 121 0 0 0 0 0 0 0 22-21 50-33 81-33 30 0 59 12 80 33 0 0 0 0 0 0 34 34 88 34 122 0 0 0 0 0 0 0 21-21 50-33 81-33 30 0 58 12 80 33 6 6 6 14 0 20-5 6-14 6-20 0-16-16-37-25-60-25s-45 9-61 25c0 0 0 0 0 0-45 44-117 44-161 0 0 0 0 0 0 0 0 0 0 0 0 0-17-16-38-25-61-25-23 0-45 9-61 25 0 0 0 0 0 0-44 44-117 44-161 0 0 0 0 0 0 0 0 0 0 0 0 0-17-16-38-25-61-25-23 0-45 9-61 25-5 6-14 6-20 0-5-6-5-14 0-20z m0 111c-5-5-5-14 0-19 23-23 52-34 81-34 29 0 58 11 81 34 16 16 37 25 60 25s45-9 61-25c6-6 14-6 20 0 6 5 6 14 0 19-21 22-50 34-81 34-30 0-58-12-80-34-34-33-88-33-122 0-5 6-14 6-20 0z m142 256c0 0 0 0 0 0 22-23 51-34 80-34 30 0 59 11 81 34 6 5 6 14 0 19-6 6-14 6-20 0-33-33-88-33-121 0 0 0 0 0 0 0-22 22-50 34-81 34-31 0-59-12-81-34-5-5-5-14 0-19 6-6 15-6 20 0 17 16 38 25 61 25 23 0 44-9 61-25 0 0 0 0 0 0z m585-172c-44 44-117 44-161 0 0 0 0 0 0 0-16-16-38-25-61-25s-45 9-61 25c-44 44-116 44-161 0-5-6-5-14 0-20 6-5 14-5 20 0 34 34 88 34 122 0 21-21 50-33 80-33 31 0 59 12 81 33 0 0 0 0 0 0 33 34 88 34 121 0 6-5 15-5 20 0 6 6 6 14 0 20z m0 100c-44 44-117 44-161 0 0 0 0 0 0 0-16-16-38-25-61-25s-45 9-61 25c-44 44-116 44-161 0 0 0 0 0 0 0-16-16-38-25-61-25s-44 9-60 25c-6 6-15 6-20 0-6-6-6-14 0-20 21-21 50-33 80-33 31 0 59 12 81 33 0 0 0 0 0 0 34 34 88 34 122 0 21-21 50-33 80-33 31 0 59 12 81 33 0 0 0 0 0 0 33 34 88 34 121 0 6-5 15-5 20 0 6 6 6 14 0 20z m-20-375c-16-16-37-25-60-25s-45 9-61 25c0 0 0 0 0 0-45 44-117 44-161 0-6-6-6-14 0-20 5-5 14-5 19 0 34 34 88 34 122 0 0 0 0 0 0 0 21-21 50-33 81-33 30 0 58 12 80 33 6 6 6 14 0 20-5 5-14 5-20 0z" horiz-adv-x="1000" />

<glyph glyph-name="whatsapp-teilen" unicode="&#xe845;" d="M538 528c-77 16-140-9-187-72-46-59-47-140-7-205 3-5 4-8 2-14-5-18-10-37-15-55-1-4-1-5 3-4 20 6 40 10 59 16 5 1 8 0 12-2 29-17 61-26 100-26 5 0 15 1 25 2 104 18 173 119 149 221-18 75-66 123-141 139z m72-229c-2-23-19-34-40-39-4-1-9-1-14-1-8 0-15 1-23 3-50 14-88 45-118 85-12 15-22 30-26 49-4 23 3 42 20 57 5 5 22 7 29 4 3-1 4-3 5-5 6-15 13-29 19-44 1-3 1-5-1-8-3-7-8-12-13-18-4-4-4-7-1-12 17-29 42-49 74-62 5-2 8-1 12 3 5 6 11 13 16 19 3 5 7 6 12 3 11-4 21-9 32-14 3-1 5-2 7-3 11-6 11-6 10-17z m-516 454v-811h811v811h-811z m449-620c-51-10-100-3-146 21-3 1-5 1-8 0-36-9-71-18-107-28-6-1-6-1-4 5 9 34 18 68 28 103 1 3 1 6-1 10-71 130 5 292 151 322 15 3 29 4 43 4 105-1 192-70 216-170 29-120-50-243-172-267z" horiz-adv-x="1000" />

<glyph glyph-name="wind" unicode="&#xe846;" d="M138 411h275c62 0 113 51 113 114s-51 114-113 114-114-51-114-114c0-8 6-14 14-14s13 6 13 14c0 48 39 86 87 86s86-38 86-86-39-86-86-86h-275c-8 0-14-6-14-14s6-14 14-14z m450-150c61 0 111-50 111-111s-50-111-111-111-112 50-112 111c0 8-6 14-13 14s-14-6-14-14c0-77 62-139 139-139s138 62 138 139-62 139-138 139h-450c-8 0-14-6-14-14s6-14 14-14h450z m162 428c-97 0-176-79-176-176 0-8 6-14 14-14s13 6 13 14c0 81 67 148 149 148s149-67 149-148-67-149-149-149h-662c-8 0-14-6-14-14s6-14 14-14h662c97 0 176 79 176 177s-79 176-176 176z" horiz-adv-x="1000" />

<glyph glyph-name="wolke" unicode="&#xe847;" d="M738 375c-5 0-9 0-14-1-5 57-53 101-111 101-9 0-17-1-24-2-23 46-71 79-127 79-64 0-119-43-135-103-58-5-102-53-102-111 0-14 2-26 6-38-2 0-4 0-6 0-55 0-100-45-100-100s45-100 100-100h525v1c70 6 125 65 125 137 0 75-62 137-137 137z" horiz-adv-x="1000" />

<glyph glyph-name="youtube-ekw" unicode="&#xe848;" d="M94-56h812v812h-812v-812z m536 406l-262-151v302l262-151z" horiz-adv-x="1000" />

<glyph glyph-name="youtube" unicode="&#xe849;" d="M737 663h-474c-87 0-157-70-157-157v-312c0-86 71-157 157-157h474c87 0 157 71 157 157v312c0 87-70 157-157 157z m129-469c0-71-58-129-129-129h-474c-71 0-129 58-129 129v312c0 72 58 129 129 129h474c71 0 129-58 129-129v-312z m-200 168l-266 153c-4 3-10 3-14 0-4-2-7-7-7-12v-307c0-5 3-9 7-12 2-1 4-1 7-1s5 0 7 1l266 154c4 2 7 7 7 12s-3 9-7 12z m-259-141v258l224-129-224-129z" horiz-adv-x="1000" />

<glyph glyph-name="pfeil-s-links" unicode="&#xe84a;" d="M371 350l284 283c5 6 5 15 0 20-6 6-14 6-20 0l-293-293c-6-6-6-14 0-20l293-293c3-3 6-4 10-4s7 1 9 4c6 6 6 14 0 20l-283 283z" horiz-adv-x="1000" />

<glyph glyph-name="fissabdruck" unicode="&#xe84b;" d="M510 189c17-15 38-21 59-21 26 0 52 11 70 33l171 206c48 57 39 142-18 190-57 47-142 39-189-18-35-42-43-99-19-141 11-21 12-40 4-57-8-17-25-29-37-31-33-6-50-28-53-32-16-19-23-42-21-67 2-25 14-47 33-62z m9 111c0 1 0 1 1 1 0 0 13 17 36 21 20 4 45 20 57 47 9 17 14 46-5 82-18 33-11 77 16 110 21 26 52 39 82 39 25 0 49-8 68-25 46-37 52-105 15-150l-171-206c-22-28-63-31-90-9-27 23-31 63-9 90z m72 353c10-8 21-12 33-12 2 0 4 0 5 0 14 2 27 8 35 19 19 22 16 54-6 73-11 9-25 13-39 11-13-1-26-7-35-18s-13-24-11-38 8-27 18-35z m15 55c4 5 10 8 17 9 0 0 1 0 2 0 5 0 11-2 15-6 10-8 12-23 3-34-4-5-10-8-16-8-7-1-13 1-18 5-5 4-8 10-8 17s1 12 5 17z m97-44c7-5 15-8 23-8 1 0 2 0 3 0 10 1 19 6 25 13 6 8 9 17 9 27-1 10-6 18-14 25-15 13-38 10-51-5-13-16-10-38 5-52z m16 34c2 2 5 3 7 3 2 0 4 0 6-2 1-1 2-3 3-6 0-2-1-4-2-6 0 0 0 0 0 0-2-2-4-3-6-3-2 0-4 0-6 2-4 3-5 8-2 12z m79-68c4-1 8-2 11-2 6 0 11 2 17 4 8 5 15 12 18 21 3 10 2 20-2 28-4 9-12 15-21 18-9 4-19 3-28-1-18-9-25-31-16-49 4-9 11-16 21-19z m7 43c1 0 3 0 4 0 1 0 2 0 3 0 2-1 4-2 5-5 1-2 1-4 1-6s-3-4-5-5c-2-1-4-1-7-1-2 1-3 2-5 5-2 4 0 10 4 12z m66-102c1 0 1 0 2 0h0c10 0 19 5 25 12s10 16 10 26c-1 10-5 19-12 25-7 7-17 10-26 10-20-1-36-18-35-38 1-20 17-35 36-35z m0 45c0 0 0 0 0 0 3 0 5-1 6-2 2-2 3-4 3-6 0-5-3-9-8-9-5 0-9 3-9 8 0 5 3 9 8 9z m0-80c-3-9-3-19 1-28s11-15 20-19c4-1 9-2 13-2 5 0 10 1 15 3 9 4 16 11 19 20 4 9 3 19-1 28-4 9-11 15-20 19-19 7-40-2-47-21z m37-5c2-1 4-2 5-4s1-5 0-7c-1-2-2-4-4-5s-5-1-7 0c0 0 0 0 0 0-2 1-4 3-5 4-1 3-1 5 0 7 1 3 4 6 8 6 1 0 2-1 3-1z m-747-266c0-36 15-70 40-95l191-188c17-17 41-26 64-26 24 0 48 9 66 27 17 18 26 41 26 65 0 25-10 48-27 65-3 3-23 23-56 26-13 1-31 11-41 27-10 17-10 36-1 57 19 45 6 101-33 139-53 52-138 52-191-1-25-26-38-60-38-96z m135 108c27 0 54-10 75-31 30-30 41-74 27-108-16-38-8-66 2-82 16-26 42-39 62-41 24-2 38-17 38-17 1 0 1-1 1-1 25-24 25-65 0-90-24-26-65-26-90-1l-191 188c-42 41-42 109-1 151 22 21 49 32 77 32z m25 63c10-10 23-15 36-15 13 0 27 5 37 15 20 20 20 53-1 73-10 10-22 15-36 15-14 0-27-5-37-15-10-10-15-23-15-37 0-13 6-26 16-36l0 0z m19 54c4 4 11 7 17 7 0 0 0 0 0 0 7 0 13-3 17-7 10-9 10-25 0-34-4-5-10-7-16-7 0 0 0 0-1 0-6 0-12 2-17 7 0 0 0 0 0 0-4 4-7 10-7 17 0 6 2 12 7 17z m-84-64c0 0 0 0 0 0 10 0 19 4 26 11 7 7 10 16 10 26 0 10-4 19-11 26-7 7-16 10-25 10-10 0-19-4-26-11-7-7-11-16-11-25 0-10 4-19 11-26 7-7 16-11 26-11z m-6 43c1 1 4 2 6 2 0 0 0 0 0 0 2 0 4-1 6-2 3-4 3-9 0-13-2-1-4-2-6-2-2 0-5 1-6 2 0 0 0 0 0 0-2 2-3 4-3 7s1 4 3 6z m-87-76c5-2 9-3 13-3 15 0 29 9 34 24 7 18-2 39-21 47-19 7-40-3-47-22-3-9-3-18 1-27 4-9 11-16 20-19z m5 37c1 3 5 5 8 5 1 0 2 0 3 0 5-2 7-7 5-11-1-5-6-7-11-5 0 0 0 0 0 0-2 0-4 2-5 4s-1 5 0 7z m-48-103c1 0 1 0 2 0 10 1 19 5 25 12 7 7 10 16 10 26-1 10-5 19-12 25-7 7-17 10-26 10-20-1-36-18-35-38 1-20 17-35 36-35z m0 45c0 0 0 0 0 0 5 0 9-4 9-8 0-2-1-5-2-6-2-2-4-3-6-3-5 0-9 3-9 8-1 5 3 9 8 9z m-9-128c9 4 15 12 18 21 4 9 3 19-1 28-9 18-31 25-49 16-18-9-26-31-16-49 4-9 11-16 21-19 4-1 7-2 11-2 6 1 11 2 16 5z m-24 28c-1 2-1 5 0 7 1 2 2 4 4 5 1 0 2 1 4 1 3 0 6-2 8-5 1-2 1-4 0-7-1-2-2-4-4-5h0c-2-1-5-1-7 0-2 1-4 2-5 4z" horiz-adv-x="1000" />

<glyph glyph-name="info" unicode="&#xe84c;" d="M592 207a18 18 0 0 0-18-18h-104a18 18 0 0 0 0 36h16v139h-16a17 17 0 1 0 0 33h52a32 32 0 0 0 34-33v-139h18a18 18 0 0 0 18-18z m-70 244a52 52 0 1 1-52 52 52 52 0 0 1 52-52z m347-87a347 347 0 1 0-347 347 347 347 0 0 0 347-347z m-69 0a278 278 0 1 1-278-278 278 278 0 0 1 278 278z" horiz-adv-x="1000" />

<glyph glyph-name="kontakt" unicode="&#xe84d;" d="M500 714c-201 0-364-163-364-364s163-364 364-364a363 363 0 0 1 188 52 14 14 0 0 1-15 24 336 336 0 1 0 131 145 86 86 0 0 0-160 43v250a14 14 0 1 1-27 0v-34c-31 44-80 73-136 73a164 164 0 0 1-164-164v-50a163 163 0 0 1 300-90 114 114 0 0 1 211-42c1 0 1 1 1 1a361 361 0 0 1 35 156c0 201-163 364-364 364z m-19-525a136 136 0 0 0-137 136v50a136 136 0 1 0 273 0v-50a136 136 0 0 0-136-136z" horiz-adv-x="1000" />

<glyph glyph-name="newsletter" unicode="&#xe84e;" d="M891 600c0 0 0 0 0 0a14 14 0 0 1 0 2c0 0 0 1-1 1a19 19 0 0 1-1 3c0 0 0 0 0 1a14 14 0 0 1-1 1c0 0 0 0 0 0s-1 1-1 1a14 14 0 0 1-1 1c0 0 0 1-1 1l-1 1-1 0-1 1-2 0-1 0-1 1-1 0h-750l-1 0-1-1-2 0-1 0-1-1-1 0-1-1c-1 0-1-1-1-1a14 14 0 0 1-1-1c-1 0-1 0-1-1s0 0 0 0a14 14 0 0 1-1-1c0-1 0-1-1-1a19 19 0 0 1-1-3c0 0 0-1 0-1a14 14 0 0 1 0-2c0 0 0 0 0 0v-500s0 0 0 0a14 14 0 0 1 0-2c0 0 0-1 0-1s1-1 1-1 0-1 0-2 1 0 1-1a14 14 0 0 1 1-1l0 0a14 14 0 0 1 1-2l0 0a14 14 0 0 1 2-2l0 0a14 14 0 0 1 2-1l1 0a14 14 0 0 1 2-1l0 0a14 14 0 0 1 3 0h750a14 14 0 0 1 2 0l1 0a14 14 0 0 1 2 1l0 0a14 14 0 0 1 3 1l0 0a14 14 0 0 1 1 2l1 0a14 14 0 0 1 1 2l0 0a14 14 0 0 1 1 1c0 1 0 1 0 1s1 1 1 2 0 0 0 1 0 1 0 1a14 14 0 0 1 1 2s0 0 0 0z m-750-29l291-233-291-211z m361-253l-336 268h671z m-48 2l39-31a14 14 0 0 1 17 0l39 31 285-206h-664z m118 18l291 233v-444z" horiz-adv-x="1000" />

<glyph glyph-name="sprechblase" unicode="&#xe84f;" d="M708 18a14 14 0 0 0-5 1 297 297 0 0 0-68 35c-42 28-66 63-70 101h-369a71 71 0 0 0-71 71v323a70 70 0 0 0 70 70h609a71 71 0 0 0 71-71v-322a71 71 0 0 0-71-71h-82v-123a14 14 0 0 0-6-11 14 14 0 0 0-8-3z m-513 573a42 42 0 0 1-42-42v-323a43 43 0 0 1 43-43h382a14 14 0 0 0 14-14c0-63 68-101 102-116v116a14 14 0 0 0 14 14h96a44 44 0 0 1 43 43v322a43 43 0 0 1-43 43z" horiz-adv-x="1000" />

<glyph glyph-name="stoppuhr" unicode="&#xe850;" d="M500 533a14 14 0 0 0-14 14v32a14 14 0 0 0 28 0v-32a14 14 0 0 0-14-14z m0 100a14 14 0 0 0-14 14v67a14 14 0 0 0 28 0v-67a14 14 0 0 0-14-14z m0-654c-188 0-341 152-341 338s153 338 341 338 341-152 341-338-153-338-341-338z m0 648c-173 0-313-139-313-310s140-310 313-310 313 139 313 310-140 310-313 310z m87-112a14 14 0 0 0-5 1 14 14 0 0 0-8 18l13 31a14 14 0 0 0 26-11l-13-30a14 14 0 0 0-13-9z m123-124a14 14 0 0 0-5 27l30 12a14 14 0 0 0 10-25l-30-13a14 14 0 0 0-5-1z m53-86h-33a14 14 0 0 0 0 28h33a14 14 0 0 0 0-28z m-20-101a14 14 0 0 0-6 1l-30 13a14 14 0 0 0 10 25l31-12a14 14 0 0 0-5-27z m-58-86a14 14 0 0 0-10 4l-23 24a14 14 0 1 0 19 19l24-23a14 14 0 0 0-10-24z m-86-57a14 14 0 0 0-13 9l-13 31a14 14 0 0 0 26 10l13-30a14 14 0 0 0-8-19 14 14 0 0 0-5-1z m-102-19h0a14 14 0 0 0-13 14l0 33a14 14 0 0 0 14 14h0a14 14 0 0 0 14-14l-1-33a14 14 0 0 0-14-14z m-101 21a14 14 0 0 0-5 1 14 14 0 0 0-7 18l13 31a14 14 0 0 0 25-11l-13-30a14 14 0 0 0-13-9z m-85 58a14 14 0 0 0-10 24l24 23a14 14 0 1 0 19-20l-23-23a14 14 0 0 0-10-4z m-56 87a14 14 0 0 0-5 27l30 12a14 14 0 1 0 11-26l-31-12a14 14 0 0 0-5-1z m14 101h0l-33 0a14 14 0 1 0 0 28l33 0a14 14 0 0 0 0-28z m19 88a14 14 0 0 0-5 1l-31 13a14 14 0 1 0 11 26l31-13a14 14 0 0 0-6-27z m51 74a14 14 0 0 0-10 5l-23 23a14 14 0 1 0 20 20l23-24a14 14 0 0 0-10-24z m76 49a14 14 0 0 0-13 9l-12 31a14 14 0 1 0 26 10l12-31a14 14 0 0 0-13-19z m85-214a14 14 0 0 0-10 23l184 183a14 14 0 1 0 20-20l-185-182a14 14 0 0 0-9-4z m68 394h-141a14 14 0 0 0 0 28h141a14 14 0 0 0 0-28z" horiz-adv-x="1000" />

<glyph glyph-name="wolke-minus" unicode="&#xe851;" d="M742 158h-467c-22 0-55 2-81 17-30 18-46 47-47 89a2 2 0 0 0 0 0c0 41 24 86 78 98 8 76 54 127 123 137 26 58 72 90 130 90 54 0 97-27 124-77a120 120 0 0 0 88-11 116 116 0 0 0 56-71c68-2 123-62 123-136 0-75-57-136-127-136z m-567 107c1-55 31-79 100-79h467c55 0 99 48 99 108 0 59-44 108-99 108h-7a14 14 0 0 0-14 11c-5 28-21 51-44 64a92 92 0 0 1-78 5 14 14 0 0 0-17 7l-3 6c-21 43-57 66-101 66-47 0-85-27-106-76l-2-4a14 14 0 0 0-11-9l-5 0c-58-7-96-51-102-116l0-7a14 14 0 0 0-11-12l-7-1c-41-8-59-42-59-71z m388 87h-137a14 14 0 0 1 0-28h137a14 14 0 0 1 0 28z" horiz-adv-x="1000" />

<glyph glyph-name="label" unicode="&#xe852;" d="M735 732h-470c-7 0-14-6-14-14v-667c0-7 7-14 14-14h285v-49c0-6 3-11 8-13 2-1 4-1 5-1 4 0 8 1 10 4l36 35 35-35c4-4 10-5 15-3 5 2 9 7 9 13v49h67c8 0 14 7 14 14v667c0 8-6 14-14 14z m-126-635c-26 0-46 21-46 47 0 25 20 46 46 46s46-21 46-46c0-26-21-47-46-47z m9-54c-2 2-6 4-9 4s-8-2-10-4l-22-22v56c10-5 20-7 32-7s21 2 31 7v-56l-22 22z m103 22h-53v34c9 13 15 28 15 45 0 40-34 73-74 73s-74-33-74-73c0-17 5-32 15-45v-34h-271v639h442l0-639 0 0z m-120 498c-5 12-13 22-25 28-10 6-23 8-35 6-12 19-31 30-53 30-25 0-45-13-57-37-27-6-46-26-51-56-22-7-32-28-32-45v-1c1-23 12-50 59-50h186c32 0 59 28 59 62 0 32-23 59-51 63z m-8-97h-185c-26 0-31 8-32 23 0 8 5 18 17 20l13 3 1 13c2 22 14 36 33 38l10 2 4 9c5 11 15 25 34 25 18 0 28-12 33-22l7-14 12 5c7 3 16 3 23-1 5-3 11-9 13-20l3-11h14c17 0 31-16 31-35 0-20-14-35-31-35z m15-67h-216c-7 0-13-7-13-14s6-14 13-14h216c7 0 14 6 14 14s-7 14-14 14z m0-61h-216c-7 0-13-6-13-13s6-14 13-14h216c7 0 14 6 14 14s-7 13-14 13z m-74-60h-142c-7 0-13-6-13-13s6-14 13-14h142c7 0 14 6 14 14s-7 13-14 13z" horiz-adv-x="1000" />

<glyph glyph-name="abo" unicode="&#xe853;" d="M908 261c-4 7-12 9-19 6 0 0 0 0 0 0l-41-24c59 192-49 396-241 455-96 29-199 18-286-31-52-29-95-71-127-120-4-7-3-15 4-19 6-4 15-3 19 4 100 156 308 202 464 102 130-83 187-243 138-389l-27 49c-4 6-12 9-19 5-6-4-9-12-5-19 0 0 0 0 0 0l42-74c0-1 1-1 1-2l0 0c1-1 1-1 1-1 1-1 1-1 2-2l1 0c0 0 1-1 1-1l1 0 0 0c0 0 1-1 2-1h0c1 0 2 0 3 0 2 0 5 0 7 2l74 42c7 3 9 12 5 18 0 0 0 0 0 0z m-106-89c-7 4-15 2-20-4 0 0 0 0 0 0-100-156-308-202-464-102-129 83-186 243-137 389l27-48c4-7 12-9 19-5 6 4 9 12 5 19l-42 74c0 1-1 1-1 2v0c-1 1-1 1-2 2l0 0c-1 0-1 1-2 1l-1 1 0 0c0 0-1 0-1 0 0 0-1 0-1 0l-1 1c-1 0-2 0-2 0h-1c-1 0-2 0-2 0h-1c-1-1-2-1-4-2l-74-42c-6-3-9-12-5-19s12-9 19-5l0 0 41 23c-59-192 49-395 241-455 3-1 6-2 9-3 32-9 65-13 98-13 124 0 239 63 306 167 4 6 2 15-4 19 0 0 0 0 0 0z m-476 81c16-9 35-10 48-10h253c42 0 75 36 75 80 0 42-30 77-68 80-5 17-17 30-32 39-15 8-31 10-48 7-15 26-40 41-70 41-33 0-60-18-75-49-37-7-62-35-68-76-30-9-43-35-43-58v0c1-32 16-47 28-54z m27 87l14 2 1 14c3 33 21 54 49 58l11 1 4 10c8 17 23 38 52 38 22 0 39-12 49-33l7-15 12 5c12 5 25 4 36-3 12-6 19-17 21-30l3-11h15c26 0 48-24 48-53s-22-53-48-53h-253c-34 0-48 11-48 37-1 16 11 30 27 33z" horiz-adv-x="1000" />
</font>
</defs>
</svg>
